Set as default Homepage|Bookmark
 
 
» » Suryakantham (2019) Telugu - 1080p - WEB-DL - AVC - AAC-BWT
Advertise

Suryakantham (2019) Telugu - 1080p - WEB-DL - AVC - AAC-BWT

Author: wroser on 30-07-2019, 22:19
Suryakantham (2019) Telugu - 1080p - WEB-DL - AVC - AAC-BWT





Format                      : MPEG-4
Format profile              : Base Media
Codec ID                    : isom (isom/iso2/avc1/mp41)
File size                   : 2.25 GiB
Duration                    : 2 h 0 min
Overall bit rate            : 2 674 kb/s
Writing application         : Lavf58.23.101

Video
ID                          : 1
Format                      : AVC
Format/Info                 : Advanced Video Codec
Format profile              : [email protected]
Format settings             : CABAC / 4 Ref Frames
Format settings, CABAC      : Yes
Format settings, Reference  : 4 frames
Codec ID                    : avc1
Codec ID/Info               : Advanced Video Coding
Duration                    : 2 h 0 min
Bit rate                    : 2 546 kb/s
Width                       : 1 920 pixels
Height                      : 1 080 pixels
Display aspect ratio        : 16:9
Frame rate mode             : Constant
Frame rate                  : 24.000 FPS
Color space                 : YUV
Chroma subsampling          : 4:2:0
Bit depth                   : 8 bits
Scan type                   : Progressive
Bits/(Pixel*Frame)          : 0.051
Stream size                 : 2.11 GiB (94%)
Writing library             : x264 core 152 r2851 ba24899
Encoding settings           : cabac=1 / ref=4 / deblock=1:0:0 / analyse=0x3:0x113 / me=hex / subme=8 / psy=1 / psy_rd=1.00:0.00 / mixed_ref=1 / me_range=16 / chroma_me=1 / trellis=2 / 8x8dct=1 / cqm=0 / deadzone=21,11 / fast_pskip=1 / chroma_qp_offset=-2 / threads=10 / lookahead_threads=1 / sliced_threads=0 / nr=0 / decimate=1 / interlaced=0 / bluray_compat=0 / constrained_intra=0 / bframes=0 / weightp=2 / keyint=72 / keyint_min=7 / scenecut=40 / intra_refresh=0 / rc_lookahead=50 / rc=cbr / mbtree=1 / bitrate=2546 / ratetol=1.0 / qcomp=0.90 / qpmin=3 / qpmax=51 / qpstep=8 / vbv_maxrate=2546 / vbv_bufsize=10184 / nal_hrd=none / filler=0 / ip_ratio=1.40 / aq=1:1.00
Language                    : Telugu
Codec configuration box     : avcC

Audio
ID                          : 2
Format                      : AAC LC
Format/Info                 : Advanced Audio Codec Low Complexity
Codec ID                    : mp4a-40-2
Duration                    : 2 h 0 min
Bit rate mode               : Constant
Bit rate                    : 164 kb/s
Channel(s)                  : 2 channels
Channel layout              : L R
Sampling rate               : 44.1 kHz
Frame rate                  : 43.066 FPS (1024 SPF)
Compression mode            : Lossy
Stream size                 : 141 MiB (6%)
Language                    : Telugu
Default                     : Yes
Alternate group             : 1



Suryakantham (2019) Telugu - 1080p - WEB-DL - AVC - AAC-BWT
Suryakantham (2019) Telugu - 1080p - WEB-DL - AVC - AAC-BWT
Suryakantham (2019) Telugu - 1080p - WEB-DL - AVC - AAC-BWT
Suryakantham (2019) Telugu - 1080p - WEB-DL - AVC - AAC-BWT
Suryakantham (2019) Telugu - 1080p - WEB-DL - AVC - AAC-BWT
Suryakantham (2019) Telugu - 1080p - WEB-DL - AVC - AAC-BWT
Suryakantham (2019) Telugu - 1080p - WEB-DL - AVC - AAC-BWT


SINGLE DIRECT FAST LINKS

https://www.heroupload.com/879fb3f1019a928e/Suryakantham.2019.WEB-DL.1080p.AVC.UNTOUCHED.AAC-BWT.mp4


700MB LINKS



https://www.heroupload.com/862f55f75bcd4689/Suryakantham.2019.WEB-DL.1080p.AVC.UNTOUCHED.AAC-BWT.part1.rar
https://www.heroupload.com/09c64d9313496a4a/Suryakantham.2019.WEB-DL.1080p.AVC.UNTOUCHED.AAC-BWT.part2.rar
https://www.heroupload.com/f8ac878f9575c906/Suryakantham.2019.WEB-DL.1080p.AVC.UNTOUCHED.AAC-BWT.part3.rar
https://www.heroupload.com/b58c2b2ac1db0047/Suryakantham.2019.WEB-DL.1080p.AVC.UNTOUCHED.AAC-BWT.part4.rar


Buy Premium From My Links & Support Me

Теги: Suryakantham

Dear visitor, you are browsing our website as Guest.
We strongly recommend you to register and login to view hidden contents.

Comments:

Add Comments