Set as default Homepage|Bookmark
 
 
» » 7 (2019) Telugu (Original Version) 1080p - WEB-DL - AVC - DD5.1 - ESub-BWT
Advertise

7 (2019) Telugu (Original Version) 1080p - WEB-DL - AVC - DD5.1 - ESub-BWT

Author: wroser on 30-07-2019, 16:53
7 (2019) Telugu (Original Version) 1080p - WEB-DL - AVC - DD5.1 - ESub-BWT





Format                      : Matroska
Format version              : Version 4
File size                   : 5.21 GiB
Duration                    : 1 h 55 min
Overall bit rate mode       : Variable
Overall bit rate            : 6 434 kb/s
Encoded date                : UTC 2019-07-30 15:50:31
Writing application         : mkvmerge v33.1.0 ('Primrose') 32-bit
Writing library             : libebml v1.3.7 + libmatroska v1.5.0

Video
ID                          : 1
Format                      : AVC
Format/Info                 : Advanced Video Codec
Format profile              : [email protected]
Format settings             : CABAC / 3 Ref Frames
Format settings, CABAC      : Yes
Format settings, Reference  : 3 frames
Codec ID                    : V_MPEG4/ISO/AVC
Duration                    : 1 h 55 min
Bit rate mode               : Variable
Bit rate                    : 5 800 kb/s
Maximum bit rate            : 8 700 kb/s
Width                       : 1 920 pixels
Height                      : 1 080 pixels
Display aspect ratio        : 16:9
Frame rate mode             : Constant
Frame rate                  : 24.000 FPS
Color space                 : YUV
Chroma subsampling          : 4:2:0
Bit depth                   : 8 bits
Scan type                   : Progressive
Bits/(Pixel*Frame)          : 0.117
Stream size                 : 4.69 GiB (90%)
Writing library             : x264 core 148 r2715 7e75228
Encoding settings           : cabac=1 / ref=3 / deblock=1:0:0 / analyse=0x1:0x111 / me=umh / subme=10 / psy=1 / psy_rd=1.00:0.00 / mixed_ref=1 / me_range=24 / chroma_me=1 / trellis=2 / 8x8dct=0 / cqm=0 / deadzone=21,11 / fast_pskip=1 / chroma_qp_offset=-2 / threads=8 / lookahead_threads=1 / sliced_threads=0 / nr=0 / decimate=1 / interlaced=0 / bluray_compat=0 / stitchable=1 / constrained_intra=0 / bframes=2 / b_pyramid=0 / b_adapt=2 / b_bias=0 / direct=3 / weightb=1 / open_gop=0 / weightp=2 / keyint=250 / keyint_min=24 / scenecut=0 / intra_refresh=0 / rc_lookahead=48 / rc=2pass / mbtree=1 / bitrate=5800 / ratetol=1.0 / qcomp=0.50 / qpmin=6 / qpmax=51 / qpstep=4 / cplxblur=20.0 / qblur=0.5 / vbv_maxrate=8700 / vbv_bufsize=11600 / nal_hrd=vbr / filler=0 / ip_ratio=1.40 / aq=1:1.00
Language                    : Telugu
Default                     : Yes
Forced                      : No

Audio
ID                          : 2
Format                      : E-AC-3
Format/Info                 : Enhanced AC-3
Commercial name             : Dolby Digital Plus
Codec ID                    : A_EAC3
Duration                    : 1 h 55 min
Bit rate mode               : Constant
Bit rate                    : 640 kb/s
Channel(s)                  : 6 channels
Channel layout              : L R C LFE Ls Rs
Sampling rate               : 48.0 kHz
Frame rate                  : 31.250 FPS (1536 SPF)
Compression mode            : Lossy
Stream size                 : 531 MiB (10%)
Language                    : Telugu
Service kind                : Complete Main
Default                     : Yes
Forced                      : No

Text
ID                          : 3
Format                      : UTF-8
Codec ID                    : S_TEXT/UTF8
Codec ID/Info               : UTF-8 Plain Text
Duration                    : 1 h 52 min
Bit rate                    : 53 b/s
Count of elements           : 1308
Stream size                 : 44.3 KiB (0%)
Language                    : English
Default                     : Yes
Forced                      : No



7 (2019) Telugu (Original Version) 1080p - WEB-DL - AVC - DD5.1 - ESub-BWT
7 (2019) Telugu (Original Version) 1080p - WEB-DL - AVC - DD5.1 - ESub-BWT
7 (2019) Telugu (Original Version) 1080p - WEB-DL - AVC - DD5.1 - ESub-BWT
7 (2019) Telugu (Original Version) 1080p - WEB-DL - AVC - DD5.1 - ESub-BWT
7 (2019) Telugu (Original Version) 1080p - WEB-DL - AVC - DD5.1 - ESub-BWT
7 (2019) Telugu (Original Version) 1080p - WEB-DL - AVC - DD5.1 - ESub-BWT
7 (2019) Telugu (Original Version) 1080p - WEB-DL - AVC - DD5.1 - ESub-BWT
7 (2019) Telugu (Original Version) 1080p - WEB-DL - AVC - DD5.1 - ESub-BWT
7 (2019) Telugu (Original Version) 1080p - WEB-DL - AVC - DD5.1 - ESub-BWT
7 (2019) Telugu (Original Version) 1080p - WEB-DL - AVC - DD5.1 - ESub-BWT


SINGLE DIRECT FAST LINKS

https://www.heroupload.com/921e4f4c1ae3d65e/7.2019.Telugu.Org.Vers.WEB-DL.1080p.UNTOUCHED.AVC.DD5.1.ESub-BWT.mkv


1GB LINKS



https://www.heroupload.com/124448f888332c11/7.2019.Telugu.Org.Vers.WEB-DL.1080p.UNTOUCHED.AVC.DD5.1.ESub-BWT.part1.rar
https://www.heroupload.com/e9038f494cb5cc3a/7.2019.Telugu.Org.Vers.WEB-DL.1080p.UNTOUCHED.AVC.DD5.1.ESub-BWT.part2.rar
https://www.heroupload.com/ed34ed46428fc1cb/7.2019.Telugu.Org.Vers.WEB-DL.1080p.UNTOUCHED.AVC.DD5.1.ESub-BWT.part3.rar
https://www.heroupload.com/694c638a84928c65/7.2019.Telugu.Org.Vers.WEB-DL.1080p.UNTOUCHED.AVC.DD5.1.ESub-BWT.part4.rar
https://www.heroupload.com/cd29c3291573eb58/7.2019.Telugu.Org.Vers.WEB-DL.1080p.UNTOUCHED.AVC.DD5.1.ESub-BWT.part5.rar
https://www.heroupload.com/3367f2f086b5d990/7.2019.Telugu.Org.Vers.WEB-DL.1080p.UNTOUCHED.AVC.DD5.1.ESub-BWT.part6.rar





Buy Premium From My Links & Support Me

Теги: 7

Dear visitor, you are browsing our website as Guest.
We strongly recommend you to register and login to view hidden contents.

Comments:

Add Comments