Set as default Homepage|Bookmark
 
 
» » Padi Padi Leche Manasu (2018) Telugu - 1080p - WEB-DL - UNTOUCHED - AVC - DD5.1-TMV
Advertise

Padi Padi Leche Manasu (2018) Telugu - 1080p - WEB-DL - UNTOUCHED - AVC - DD5.1-TMV

Author: wroser on 16-01-2019, 23:06
Padi Padi Leche Manasu (2018) Telugu - 1080p - WEB-DL - UNTOUCHED - AVC - DD5.1-TMV





Format                                   : Matroska
Format version                           : Version 4
File size                                : 5.79 GiB
Duration                                 : 2 h 32 min
Overall bit rate                         : 5 430 kb/s
Encoded date                             : UTC 2019-01-16 21:04:49
Writing application                      : mkvmerge v25.0.0 ('Prog Noir') 32-bit
Writing library                          : libebml v1.3.6 + libmatroska v1.4.9

Video
ID                                       : 1
Format                                   : AVC
Format/Info                              : Advanced Video Codec
Format profile                           : [email protected]
Format settings                          : CABAC / 4 Ref Frames
Format settings, CABAC                   : Yes
Format settings, RefFrames               : 4 frames
Codec ID                                 : V_MPEG4/ISO/AVC
Duration                                 : 2 h 32 min
Bit rate                                 : 4 789 kb/s
Width                                    : 1 920 pixels
Height                                   : 816 pixels
Display aspect ratio                     : 2.35:1
Frame rate mode                          : Constant
Frame rate                               : 24.000 FPS
Color space                              : YUV
Chroma subsampling                       : 4:2:0
Bit depth                                : 8 bits
Scan type                                : Progressive
Bits/(Pixel*Frame)                       : 0.127
Stream size                              : 5.11 GiB (88%)
Default                                  : Yes
Forced                                   : No
Color range                              : Limited
Color primaries                          : BT.709
Transfer characteristics                 : BT.709
Matrix coefficients                      : BT.709

Audio
ID                                       : 2
Format                                   : E-AC-3
Format/Info                              : Enhanced AC-3
Commercial name                          : Dolby Digital Plus
Codec ID                                 : A_EAC3
Duration                                 : 2 h 32 min
Bit rate mode                            : Constant
Bit rate                                 : 640 kb/s
Channel(s)                               : 6 channels
Channel layout                           : L R C LFE Ls Rs
Sampling rate                            : 48.0 kHz
Frame rate                               : 31.250 FPS (1536 SPF)
Compression mode                         : Lossy
Stream size                              : 699 MiB (12%)
Title                                    : Telugu
Language                                 : Telugu
Service kind                             : Complete Main
Default                                  : No
Forced                                   : No

Text
ID                                       : 3
Format                                   : UTF-8
Codec ID                                 : S_TEXT/UTF8
Codec ID/Info                            : UTF-8 Plain Text
Duration                                 : 2 h 30 min
Bit rate                                 : 68 b/s
Count of elements                        : 2131
Stream size                              : 75.5 KiB (0%)
Title                                    : English [SDH]
Language                                 : English
Default                                  : No
Forced                                   : No




Padi Padi Leche Manasu (2018) Telugu - 1080p - WEB-DL - UNTOUCHED - AVC - DD5.1-TMVPadi Padi Leche Manasu (2018) Telugu - 1080p - WEB-DL - UNTOUCHED - AVC - DD5.1-TMVPadi Padi Leche Manasu (2018) Telugu - 1080p - WEB-DL - UNTOUCHED - AVC - DD5.1-TMVPadi Padi Leche Manasu (2018) Telugu - 1080p - WEB-DL - UNTOUCHED - AVC - DD5.1-TMVPadi Padi Leche Manasu (2018) Telugu - 1080p - WEB-DL - UNTOUCHED - AVC - DD5.1-TMVPadi Padi Leche Manasu (2018) Telugu - 1080p - WEB-DL - UNTOUCHED - AVC - DD5.1-TMVPadi Padi Leche Manasu (2018) Telugu - 1080p - WEB-DL - UNTOUCHED - AVC - DD5.1-TMVPadi Padi Leche Manasu (2018) Telugu - 1080p - WEB-DL - UNTOUCHED - AVC - DD5.1-TMVPadi Padi Leche Manasu (2018) Telugu - 1080p - WEB-DL - UNTOUCHED - AVC - DD5.1-TMVPadi Padi Leche Manasu (2018) Telugu - 1080p - WEB-DL - UNTOUCHED - AVC - DD5.1-TMV


SINGLE DIRECT FAST LINKS

https://www.heroupload.com/3c4c3888899590d8/Padi.Padi.Leche.Manasu.2018.Telugu.WEB-DL.1080p.UNTOUCHED.AVC.DD5.1.ESub-TMV.mkv


1GB LINKS


https://www.heroupload.com/601982c222c7f2e1/Padi.Padi.Leche.Manasu.2018.Telugu.WEB-DL.1080p.UNTOUCHED.AVC.DD5.1.ESub-TMV.part1.rar
https://www.heroupload.com/fc949bc94520b199/Padi.Padi.Leche.Manasu.2018.Telugu.WEB-DL.1080p.UNTOUCHED.AVC.DD5.1.ESub-TMV.part2.rar
https://www.heroupload.com/c2ee17aa0682d9e8/Padi.Padi.Leche.Manasu.2018.Telugu.WEB-DL.1080p.UNTOUCHED.AVC.DD5.1.ESub-TMV.part3.rar
https://www.heroupload.com/7d08ec208897be8c/Padi.Padi.Leche.Manasu.2018.Telugu.WEB-DL.1080p.UNTOUCHED.AVC.DD5.1.ESub-TMV.part4.rar
https://www.heroupload.com/bd2a65c08db73258/Padi.Padi.Leche.Manasu.2018.Telugu.WEB-DL.1080p.UNTOUCHED.AVC.DD5.1.ESub-TMV.part5.rar
https://www.heroupload.com/69524574d38c5b13/Padi.Padi.Leche.Manasu.2018.Telugu.WEB-DL.1080p.UNTOUCHED.AVC.DD5.1.ESub-TMV.part6.rar




Buy Premium From My Links & Support Me

Теги: Padi

Dear visitor, you are browsing our website as Guest.
We strongly recommend you to register and login to view hidden contents.

Comments:

Add Comments