Set as default Homepage|Bookmark
 
 
» » Sarkar (2018) 1080p - HDRip - x264 - ESub [Telugu-Line+Tamil] TMV
Advertise

Sarkar (2018) 1080p - HDRip - x264 - ESub [Telugu-Line+Tamil] TMV

Author: wroser on 31-12-2018, 20:17
Sarkar (2018) 1080p - HDRip - x264 - ESub [Telugu-Line+Tamil] TMV





Format                                   : Matroska
Format version                           : Version 4
File size                                : 2.42 GiB
Duration                                 : 2 h 37 min
Overall bit rate mode                    : Variable
Overall bit rate                         : 2 196 kb/s
Encoded date                             : UTC 2018-12-31 14:19:23
Writing application                      : mkvmerge v7.1.0 ('Good Love') 32bit built on Jul 27 2014 12:59:18
Writing library                          : libebml v1.3.0 + libmatroska v1.4.1

Video
ID                                       : 1
Format                                   : AVC
Format/Info                              : Advanced Video Codec
Format profile                           : [email protected]
Format settings                          : CABAC / 4 Ref Frames
Format settings, CABAC                   : Yes
Format settings, RefFrames               : 4 frames
Codec ID                                 : V_MPEG4/ISO/AVC
Duration                                 : 2 h 37 min
Bit rate                                 : 2 012 kb/s
Width                                    : 1 920 pixels
Height                                   : 840 pixels
Display aspect ratio                     : 2.25:1
Frame rate mode                          : Constant
Frame rate                               : 24.000 FPS
Color space                              : YUV
Chroma subsampling                       : 4:2:0
Bit depth                                : 8 bits
Scan type                                : Progressive
Bits/(Pixel*Frame)                       : 0.052
Stream size                              : 2.21 GiB (91%)
Writing library                          : x264 core 157 r2935 545de2f
Encoding settings                        : cabac=1 / ref=3 / deblock=1:0:0 / analyse=0x3:0x113 / me=hex / subme=7 / psy=1 / psy_rd=1.00:0.00 / mixed_ref=1 / me_range=16 / chroma_me=1 / trellis=1 / 8x8dct=1 / cqm=0 / deadzone=21,11 / fast_pskip=1 / chroma_qp_offset=-2 / threads=16 / lookahead_threads=2 / sliced_threads=0 / nr=0 / decimate=1 / interlaced=0 / bluray_compat=0 / constrained_intra=0 / bframes=3 / b_pyramid=2 / b_adapt=1 / b_bias=0 / direct=1 / weightb=1 / open_gop=0 / weightp=2 / keyint=240 / keyint_min=24 / scenecut=40 / intra_refresh=0 / rc_lookahead=40 / rc=abr / mbtree=1 / bitrate=2012 / ratetol=1.0 / qcomp=0.60 / qpmin=0 / qpmax=69 / qpstep=4 / ip_ratio=1.40 / aq=1:1.00
Language                                 : Tamil
Default                                  : Yes
Forced                                   : No

Audio #1
ID                                       : 2
Format                                   : MPEG Audio
Format version                           : Version 1
Format profile                           : Layer 3
Format settings                          : Joint stereo / MS Stereo
Codec ID                                 : A_MPEG/L3
Codec ID/Hint                            : MP3
Duration                                 : 2 h 37 min
Bit rate mode                            : Variable
Bit rate                                 : 96.0 kb/s
Channel(s)                               : 2 channels
Sampling rate                            : 48.0 kHz
Frame rate                               : 41.667 FPS (1152 SPF)
Compression mode                         : Lossy
Stream size                              : 104 MiB (4%)
Writing library                          : LAME3.99r
Encoding settings                        : -m j -V 4 -q 3 -lowpass 15.1 --abr 96
Language                                 : Telugu
Default                                  : Yes
Forced                                   : No

Audio #2
ID                                       : 3
Format                                   : MPEG Audio
Format version                           : Version 1
Format profile                           : Layer 3
Format settings                          : Joint stereo / MS Stereo
Codec ID                                 : A_MPEG/L3
Codec ID/Hint                            : MP3
Duration                                 : 2 h 37 min
Bit rate mode                            : Variable
Bit rate                                 : 96.0 kb/s
Channel(s)                               : 2 channels
Sampling rate                            : 44.1 kHz
Frame rate                               : 38.281 FPS (1152 SPF)
Compression mode                         : Lossy
Stream size                              : 108 MiB (4%)
Writing library                          : LAME3.99r
Encoding settings                        : -m j -V 4 -q 3 -lowpass 15.1 --abr 96
Language                                 : Tamil
Default                                  : No
Forced                                   : No




Sarkar (2018) 1080p - HDRip - x264 - ESub [Telugu-Line+Tamil] TMVSarkar (2018) 1080p - HDRip - x264 - ESub [Telugu-Line+Tamil] TMVSarkar (2018) 1080p - HDRip - x264 - ESub [Telugu-Line+Tamil] TMVSarkar (2018) 1080p - HDRip - x264 - ESub [Telugu-Line+Tamil] TMVSarkar (2018) 1080p - HDRip - x264 - ESub [Telugu-Line+Tamil] TMV

SINGLE DIRECT FAST LINKS

https://www.heroupload.us/1d26cba447951e68/Sarkar.2018.HDRip.1080p.Telugu.Line+Tamil-TMV.mkv


700MB LINKS


https://www.heroupload.us/b0ad3a986a01dcab/Sarkar.2018.HDRip.1080p.Telugu.Line+Tamil-TMV.part1.rar
https://www.heroupload.us/4072a61b607ef6d8/Sarkar.2018.HDRip.1080p.Telugu.Line+Tamil-TMV.part2.rar
https://www.heroupload.us/008e9676bfb6d46d/Sarkar.2018.HDRip.1080p.Telugu.Line+Tamil-TMV.part3.rar
https://www.heroupload.us/a982adc842b0305b/Sarkar.2018.HDRip.1080p.Telugu.Line+Tamil-TMV.part4.rar



Buy Premium From My Links & Support Me

Теги: Sarkar

Dear visitor, you are browsing our website as Guest.
We strongly recommend you to register and login to view hidden contents.

Comments:

Add Comments
Reply
  • Evie Therry

  • 16 April 2020 08:24
  • Group: Guests
  • ICQ:
  • Registration: --
  • Status:
  • 0 Comment
  • 0 Article
^
Telugu movies are a great source of entertainment for the people who live there and all around the world as well. Therefore, arielle executive cost is here through which you can get a discount on downloading.
Reply
  • Group: Members
  • ICQ: 10100
  • Registration: 6.05.2020
  • Status: Currently Offline
  • 1 Comment
  • 0 Article
^
This award is offered to assist new professionals in student housing, with less than 5 years full time in the industry, to attend the ACUHO-I conference in the ... by https://epicfollowers.co.uk/
Reply
  • Group: Members
  • ICQ: 10010
  • Registration: 18.04.2020
  • Status: Currently Offline
  • 3 Comments
  • 0 Article
^
Movie Review: Critics Rating: 3 stars, click to give your ... “When the entire media could make it here, how could you not? ... theory in the world of films that entertainment for the Tamil people is 'reality ... Tamil films from time to time, that have been received well in Telugu ... From around the web by followers australia

It's a one stop app for getting video content in various languages. ... Spuul offers only video content from the Indian entertainment industry. You can stream and download Bollywood movies as well as movies in other ... With YuppTV, users can access over 200 live TV channels from their smartphones. by followers italy
Reply
  • Group: Guests
  • ICQ:
  • Registration: --
  • Status:
  • 0 Comment
  • 0 Article
^
Even though IGFollowers are important, you don't have to get everyone who follows you. Some people may only care about one of your posts while other people may come back and get back to you time again.