Set as default Homepage|Bookmark
 
 
» » Crime 23 (2018) Telugu - 1080p - WEB-HD - AVC - AAC-TMV
Advertise

Crime 23 (2018) Telugu - 1080p - WEB-HD - AVC - AAC-TMV

Author: wroser on 31-12-2018, 18:41
Crime 23 (2018) Telugu - 1080p - WEB-HD - AVC - AAC-TMV





Format                                   : MPEG-4
Format profile                           : Base Media
Codec ID                                 : isom (isom/iso2/avc1/mp41)
File size                                : 1.42 GiB
Duration                                 : 2 h 12 min
Overall bit rate                         : 1 537 kb/s
Writing application                      : Lavf56.40.101

Video
ID                                       : 1
Format                                   : AVC
Format/Info                              : Advanced Video Codec
Format profile                           : [email protected]
Format settings                          : CABAC / 3 Ref Frames
Format settings, CABAC                   : Yes
Format settings, RefFrames               : 3 frames
Codec ID                                 : avc1
Codec ID/Info                            : Advanced Video Coding
Duration                                 : 2 h 12 min
Duration_FirstFrame                      : -40 ms
Bit rate                                 : 1 403 kb/s
Width                                    : 1 920 pixels
Height                                   : 1 080 pixels
Display aspect ratio                     : 16:9
Frame rate mode                          : Variable
Frame rate                               : 25.000 FPS
Minimum frame rate                       : 25.000 FPS
Maximum frame rate                       : 25.098 FPS
Color space                              : YUV
Chroma subsampling                       : 4:2:0
Bit depth                                : 8 bits
Scan type                                : Progressive
Bits/(Pixel*Frame)                       : 0.027
Stream size                              : 1.30 GiB (91%)
Color range                              : Limited
Color primaries                          : BT.709
Transfer characteristics                 : BT.709
Matrix coefficients                      : BT.709
Codec configuration box                  : avcC

Audio
ID                                       : 2
Format                                   : AAC LC
Format/Info                              : Advanced Audio Codec Low Complexity
Codec ID                                 : mp4a-40-2
Duration                                 : 2 h 12 min
Bit rate mode                            : Constant
Bit rate                                 : 128 kb/s
Channel(s)                               : 2 channels
Channel layout                           : L R
Sampling rate                            : 44.1 kHz
Frame rate                               : 43.066 FPS (1024 SPF)
Compression mode                         : Lossy
Stream size                              : 121 MiB (8%)
Default                                  : Yes
Alternate group                          : 1



Crime 23 (2018) Telugu - 1080p - WEB-HD - AVC - AAC-TMV
SINGLE DIRECT FAST LINKS
https://www.heroupload.us/5e4a7bea02c663d9/Crime.23.2018.Telugu.Proper.Org.Vers.WEB-DL.1080p.AVC.AAC-TMV.mp4



Buy Premium From My Links & Support Me

Теги: Crime

Dear visitor, you are browsing our website as Guest.
We strongly recommend you to register and login to view hidden contents.

Comments:

Add Comments