Set as default Homepage|Bookmark
 
 
» » Kurukshetram (2018) Telugu - 1080p - WEB-HD - AVC - AAC-TMV
Advertise

Kurukshetram (2018) Telugu - 1080p - WEB-HD - AVC - AAC-TMV

Author: wroser on 31-12-2018, 18:34
Kurukshetram (2018) Telugu - 1080p - WEB-HD - AVC - AAC-TMV





Format                                   : MPEG-4
Format profile                           : Base Media
Codec ID                                 : isom (isom/iso2/avc1/mp41)
File size                                : 2.49 GiB
Duration                                 : 1 h 58 min
Overall bit rate mode                    : Variable
Overall bit rate                         : 2 998 kb/s
Encoded date                             : UTC 2018-12-20 10:02:55
Tagged date                              : UTC 2018-12-20 10:02:55

Video
ID                                       : 1
Format                                   : AVC
Format/Info                              : Advanced Video Codec
Format profile                           : [email protected]
Format settings                          : CABAC / 3 Ref Frames
Format settings, CABAC                   : Yes
Format settings, RefFrames               : 3 frames
Format settings, GOP                     : N=1
Codec ID                                 : avc1
Codec ID/Info                            : Advanced Video Coding
Duration                                 : 1 h 58 min
Bit rate                                 : 2 867 kb/s
Width                                    : 1 920 pixels
Height                                   : 1 080 pixels
Display aspect ratio                     : 16:9
Frame rate mode                          : Constant
Frame rate                               : 25.000 FPS
Color space                              : YUV
Chroma subsampling                       : 4:2:0
Bit depth                                : 8 bits
Scan type                                : Progressive
Bits/(Pixel*Frame)                       : 0.055
Stream size                              : 2.38 GiB (96%)
Title                                    : ISO Media file produced by Google Inc. Created on: 12/20/2018.
Encoded date                             : UTC 2018-12-20 10:02:55
Tagged date                              : UTC 2018-12-20 10:02:55
Color range                              : Limited
Color primaries                          : BT.709
Transfer characteristics                 : BT.709
Matrix coefficients                      : BT.709
Codec configuration box                  : avcC

Audio
ID                                       : 2
Format                                   : AAC LC
Format/Info                              : Advanced Audio Codec Low Complexity
Codec ID                                 : mp4a-40-2
Duration                                 : 1 h 58 min
Bit rate mode                            : Variable
Bit rate                                 : 128 kb/s
Channel(s)                               : 2 channels
Channel layout                           : L R
Sampling rate                            : 44.1 kHz
Frame rate                               : 43.066 FPS (1024 SPF)
Compression mode                         : Lossy
Stream size                              : 109 MiB (4%)
Title                                    : ISO Media file produced by Google Inc. Created on: 12/20/2018.
Default                                  : Yes
Alternate group                          : 1
Encoded date                             : UTC 2018-12-20 10:02:52
Tagged date                              : UTC 2018-12-20 10:02:52


Kurukshetram (2018) Telugu - 1080p - WEB-HD - AVC - AAC-TMV


SINGLE DIRECT FAST LINKS

https://www.heroupload.us/851d96d71ed966d1/Kurukshetram.2018.Telugu.WEB-DL.108p.AVC.AAC-TMV.mp4


700MB LINKS


https://www.heroupload.us/ddf903776c2ea517/Kurukshetram.2018.Telugu.WEB-DL.108p.AVC.AAC-TMV.part1.rar
https://www.heroupload.us/f77c9dcb1dafdf5f/Kurukshetram.2018.Telugu.WEB-DL.108p.AVC.AAC-TMV.part2.rar
https://www.heroupload.us/28a7fe2254f3f59d/Kurukshetram.2018.Telugu.WEB-DL.108p.AVC.AAC-TMV.part3.rar
https://www.heroupload.us/22358b829af86d3c/Kurukshetram.2018.Telugu.WEB-DL.108p.AVC.AAC-TMV.part4.rar


Buy Premium From My Links & Support Me

Теги: Kurukshetram

Dear visitor, you are browsing our website as Guest.
We strongly recommend you to register and login to view hidden contents.

Comments:

Add Comments