Set as default Homepage|Bookmark
 
 
» » Kurukshetram (2018) Telugu - 720p - WEB-HD - AVC - AAC-TMV
Advertise

Kurukshetram (2018) Telugu - 720p - WEB-HD - AVC - AAC-TMV

Author: wroser on 31-12-2018, 18:31
Kurukshetram (2018) Telugu - 720p - WEB-HD - AVC - AAC-TMV





Format                                   : MPEG-4
Format profile                           : Base Media / Version 2
Codec ID                                 : mp42 (isom/mp42)
File size                                : 1.40 GiB
Duration                                 : 1 h 58 min
Overall bit rate mode                    : Variable
Overall bit rate                         : 1 685 kb/s
Encoded date                             : UTC 2018-12-20 10:16:17
Tagged date                              : UTC 2018-12-20 10:16:17
gsst                                     : 0
gstd                                     : 7125135

Video
ID                                       : 1
Format                                   : AVC
Format/Info                              : Advanced Video Codec
Format profile                           : [email protected]
Format settings                          : CABAC / 3 Ref Frames
Format settings, CABAC                   : Yes
Format settings, RefFrames               : 3 frames
Format settings, GOP                     : N=1
Codec ID                                 : avc1
Codec ID/Info                            : Advanced Video Coding
Duration                                 : 1 h 58 min
Bit rate                                 : 1 554 kb/s
Width                                    : 1 280 pixels
Height                                   : 720 pixels
Display aspect ratio                     : 16:9
Frame rate mode                          : Constant
Frame rate                               : 25.000 FPS
Color space                              : YUV
Chroma subsampling                       : 4:2:0
Bit depth                                : 8 bits
Scan type                                : Progressive
Bits/(Pixel*Frame)                       : 0.067
Stream size                              : 1.29 GiB (92%)
Title                                    : ISO Media file produced by Google Inc. Created on: 12/20/2018.
Encoded date                             : UTC 2018-12-20 10:16:17
Tagged date                              : UTC 2018-12-20 10:16:17
Color range                              : Limited
Color primaries                          : BT.709
Transfer characteristics                 : BT.709
Matrix coefficients                      : BT.709
Codec configuration box                  : avcC

Audio
ID                                       : 2
Format                                   : AAC LC
Format/Info                              : Advanced Audio Codec Low Complexity
Codec ID                                 : mp4a-40-2
Duration                                 : 1 h 58 min
Bit rate mode                            : Variable
Bit rate                                 : 128 kb/s
Channel(s)                               : 2 channels
Channel layout                           : L R
Sampling rate                            : 44.1 kHz
Frame rate                               : 43.066 FPS (1024 SPF)
Compression mode                         : Lossy
Stream size                              : 109 MiB (8%)
Title                                    : ISO Media file produced by Google Inc. Created on: 12/20/2018.
Encoded date                             : UTC 2018-12-20 10:16:17
Tagged date                              : UTC 2018-12-20 10:16:17



Kurukshetram (2018) Telugu - 720p - WEB-HD - AVC - AAC-TMV

SINGLE DIRECT FAST LINKS

https://www.heroupload.us/e60ff3c3a87799d4/Kurukshetram.2018.Telugu.WEB-DL.720p.AVC.AAC-TMV.mp4




Buy Premium From My Links & Support Me

Теги: Kurukshetram

Dear visitor, you are browsing our website as Guest.
We strongly recommend you to register and login to view hidden contents.

Comments:

Add Comments