Set as default Homepage|Bookmark
 
 
» » Rachayitha (2018) Telugu - 1080p - WEB-DL - AVC - AAC - ESub-TMV
Advertise

Rachayitha (2018) Telugu - 1080p - WEB-DL - AVC - AAC - ESub-TMV

Author: wroser on 31-12-2018, 11:25
Rachayitha (2018) Telugu - 1080p - WEB-DL - AVC - AAC - ESub-TMV






Format                                   : Matroska
Format version                           : Version 4
File size                                : 5.27 GiB
Duration                                 : 2 h 8 min
Overall bit rate mode                    : Variable
Overall bit rate                         : 5 849 kb/s
Encoded date                             : UTC 2018-12-30 18:00:59
Writing application                      : mkvmerge v25.0.0 ('Prog Noir') 32-bit
Writing library                          : libebml v1.3.6 + libmatroska v1.4.9

Video
ID                                       : 1
Format                                   : AVC
Format/Info                              : Advanced Video Codec
Format profile                           : [email protected]
Format settings                          : CABAC / 4 Ref Frames
Format settings, CABAC                   : Yes
Format settings, RefFrames               : 4 frames
Codec ID                                 : V_MPEG4/ISO/AVC
Duration                                 : 2 h 8 min
Bit rate mode                            : Variable
Bit rate                                 : 5 623 kb/s
Maximum bit rate                         : 15.0 Mb/s
Width                                    : 1 920 pixels
Height                                   : 816 pixels
Display aspect ratio                     : 2.35:1
Frame rate mode                          : Constant
Frame rate                               : 24.000 FPS
Color space                              : YUV
Chroma subsampling                       : 4:2:0
Bit depth                                : 8 bits
Scan type                                : Progressive
Bits/(Pixel*Frame)                       : 0.150
Stream size                              : 5.06 GiB (96%)
Default                                  : Yes
Forced                                   : No
Color range                              : Limited
Color primaries                          : BT.709
Transfer characteristics                 : BT.709
Matrix coefficients                      : BT.709

Audio
ID                                       : 2
Format                                   : E-AC-3
Format/Info                              : Enhanced AC-3
Commercial name                          : Dolby Digital Plus
Codec ID                                 : A_EAC3
Duration                                 : 2 h 8 min
Bit rate mode                            : Constant
Bit rate                                 : 224 kb/s
Channel(s)                               : 2 channels
Channel layout                           : L R
Sampling rate                            : 48.0 kHz
Frame rate                               : 31.250 FPS (1536 SPF)
Compression mode                         : Lossy
Stream size                              : 206 MiB (4%)
Title                                    : Telugu
Language                                 : Telugu
Service kind                             : Complete Main
Default                                  : No
Forced                                   : No

Text
ID                                       : 3
Format                                   : UTF-8
Codec ID                                 : S_TEXT/UTF8
Codec ID/Info                            : UTF-8 Plain Text
Duration                                 : 2 h 4 min
Bit rate                                 : 55 b/s
Count of elements                        : 1317
Stream size                              : 50.6 KiB (0%)
Title                                    : English [SDH]
Language                                 : English
Default                                  : No
Forced                                   : No




Rachayitha (2018) Telugu - 1080p - WEB-DL - AVC - AAC - ESub-TMVRachayitha (2018) Telugu - 1080p - WEB-DL - AVC - AAC - ESub-TMVRachayitha (2018) Telugu - 1080p - WEB-DL - AVC - AAC - ESub-TMVRachayitha (2018) Telugu - 1080p - WEB-DL - AVC - AAC - ESub-TMVRachayitha (2018) Telugu - 1080p - WEB-DL - AVC - AAC - ESub-TMVRachayitha (2018) Telugu - 1080p - WEB-DL - AVC - AAC - ESub-TMV

SINGLE DIRECT FAST LINKS

https://www.heroupload.us/bc3742795009687e/Rachayitha.2018.Telugu.WEB-DL.1080p.UNTOUCHED.ESub-TMV.mkv


1GB LINKS



https://www.heroupload.us/f4cf6dc672b7f465/Rachayitha.2018.Telugu.WEB-DL.1080p.UNTOUCHED.ESub-TMV.part1.rar
https://www.heroupload.us/22642387cd635aea/Rachayitha.2018.Telugu.WEB-DL.1080p.UNTOUCHED.ESub-TMV.part2.rar
https://www.heroupload.us/cc1b7f979127ccac/Rachayitha.2018.Telugu.WEB-DL.1080p.UNTOUCHED.ESub-TMV.part3.rar
https://www.heroupload.us/acf5891bc1ff7004/Rachayitha.2018.Telugu.WEB-DL.1080p.UNTOUCHED.ESub-TMV.part4.rar
https://www.heroupload.us/c1b05742fe19b3e1/Rachayitha.2018.Telugu.WEB-DL.1080p.UNTOUCHED.ESub-TMV.part5.rar
https://www.heroupload.us/a74be8d8f63ee963/Rachayitha.2018.Telugu.WEB-DL.1080p.UNTOUCHED.ESub-TMV.part6.rar


Buy Premium From My Links & Support Me

Теги: Rachayitha

Dear visitor, you are browsing our website as Guest.
We strongly recommend you to register and login to view hidden contents.

Comments:

Add Comments