Set as default Homepage|Bookmark
 
 
» » Rarandoi Veduka Chudham (2017) Telugu - 1080p - WEB-HD - AVC - AAC-TMV
Advertise

Rarandoi Veduka Chudham (2017) Telugu - 1080p - WEB-HD - AVC - AAC-TMV

Author: wroser on 29-10-2017, 22:01
Rarandoi Veduka Chudham (2017) Telugu - 1080p - WEB-HD - AVC - AAC-TMV






General
Format                      : MPEG-4
Format profile              : Base Media
Codec ID                    : isom (isom/iso2/avc1/mp41)
File size                   : 3.19 GiB
Duration                    : 2 h 24 min
Overall bit rate mode       : Variable
Overall bit rate            : 3 168 kb/s
Encoded date                : UTC 2017-10-29 07:54:49
Tagged date                 : UTC 2017-10-29 07:54:49

Video
ID                          : 1
Format                      : AVC
Format/Info                 : Advanced Video Codec
Format profile              : [email protected]
Format settings, CABAC      : Yes
Format settings, RefFrames  : 2 frames
Codec ID                    : avc1
Codec ID/Info               : Advanced Video Coding
Duration                    : 2 h 24 min
Bit rate                    : 3 038 kb/s
Width                       : 1 920 pixels
Height                      : 1 080 pixels
Display aspect ratio        : 16:9
Frame rate mode             : Variable
Frame rate                  : 23.976 (24000/1001) FPS
Minimum frame rate          : 23.974 FPS
Maximum frame rate          : 23.981 FPS
Color space                 : YUV
Chroma subsampling          : 4:2:0
Bit depth                   : 8 bits
Scan type                   : Progressive
Bits/(Pixel*Frame)          : 0.061
Stream size                 : 3.06 GiB (96%)
Encoded date                : UTC 2017-10-29 07:54:49
Tagged date                 : UTC 2017-10-29 07:54:49
Color range                 : Limited
Color primaries             : BT.709
Transfer characteristics    : BT.709
Matrix coefficients         : BT.709

Audio
ID                          : 2
Format                      : AAC
Format/Info                 : Advanced Audio Codec
Format profile              : LC
Codec ID                    : 40
Duration                    : 2 h 24 min
Bit rate mode               : Variable
Bit rate                    : 126 kb/s
Channel(s)                  : 2 channels
Channel positions           : Front: L R
Sampling rate               : 44.1 kHz
Frame rate                  : 43.066 FPS (1024 SPF)
Compression mode            : Lossy
Stream size                 : 130 MiB (4%)
Default                     : Yes
Alternate group             : 1
Encoded date                : UTC 2017-10-29 07:57:02
Tagged date                 : UTC 2017-10-29 07:57:02



Rarandoi Veduka Chudham (2017) Telugu - 1080p - WEB-HD - AVC - AAC-TMVRarandoi Veduka Chudham (2017) Telugu - 1080p - WEB-HD - AVC - AAC-TMVRarandoi Veduka Chudham (2017) Telugu - 1080p - WEB-HD - AVC - AAC-TMVRarandoi Veduka Chudham (2017) Telugu - 1080p - WEB-HD - AVC - AAC-TMVRarandoi Veduka Chudham (2017) Telugu - 1080p - WEB-HD - AVC - AAC-TMV



SINGLE DIRECT FAST LINKS
http://www.heroupload.com/0042aea0388c3107/Rarandoi.Veduka.Chudham.2017.Telugu.WEB-HD.1080p.AVC.AAC-TMV.MP4


http://filefloater.com/bBe/Rarandoi.Veduka.Chudham.2017.Telugu.WEB-HD.1080p.AVC.AAC-TMV.MP4

700MB LINKS

http://www.heroupload.com/88e19a22eff63fcc/Rarandoi.Veduka.Chudham.2017.Telugu.WEB-HD.1080p.AVC.AAC-TMV.part1.rar
http://www.heroupload.com/881d057db53f2a6e/Rarandoi.Veduka.Chudham.2017.Telugu.WEB-HD.1080p.AVC.AAC-TMV.part2.rar
http://www.heroupload.com/14ef534f417240a4/Rarandoi.Veduka.Chudham.2017.Telugu.WEB-HD.1080p.AVC.AAC-TMV.part3.rar
http://www.heroupload.com/52c37b8d21aadf09/Rarandoi.Veduka.Chudham.2017.Telugu.WEB-HD.1080p.AVC.AAC-TMV.part4.rar
http://www.heroupload.com/c542ac7c31681077/Rarandoi.Veduka.Chudham.2017.Telugu.WEB-HD.1080p.AVC.AAC-TMV.part5.rar



http://filefloater.com/bBf/Rarandoi.Veduka.Chudham.2017.Telugu.WEB-HD.1080p.AVC.AAC-TMV.part1.rar
http://filefloater.com/bBg/Rarandoi.Veduka.Chudham.2017.Telugu.WEB-HD.1080p.AVC.AAC-TMV.part2.rar
http://filefloater.com/bBh/Rarandoi.Veduka.Chudham.2017.Telugu.WEB-HD.1080p.AVC.AAC-TMV.part3.rar
http://filefloater.com/900/Rarandoi.Veduka.Chudham.2017.Telugu.WEB-HD.1080p.AVC.AAC-TMV.part4.rar
http://filefloater.com/901/Rarandoi.Veduka.Chudham.2017.Telugu.WEB-HD.1080p.AVC.AAC-TMV.part5.rar

Dear visitor, you are browsing our website as Guest.
We strongly recommend you to register and login to view hidden contents.

Comments:

Add Comments
Reply
  • Group: Members
  • ICQ:
  • Registration: 30.10.2017
  • Status: Currently Offline
  • 7 Comment
  • 0 Article
^
Народ у кого старый комп или ноут есть отличный способ при помощи небольшого патча можно играть
в любые современные игры с высокими настройками даже на самых слабых ПК. (Через сервис PLAYKEY)
GRAND THEFT AUTO V, ВЕДЬМАК 3, ASSASSIN'S CREED ORIGINS, COUNTER-STRIKE, WORLD OF TANKS и.т.д
Патч для бесплатного пользования сервисом скачивайте здесь.
Видео по установке и настройке патча смотрите тут.