Set as default Homepage|Bookmark
 
 
» » Rarandoi Veduka Chudham (2017) Telugu - 720p - WEB-HD - AVC - AAC-TMV
Advertise

Rarandoi Veduka Chudham (2017) Telugu - 720p - WEB-HD - AVC - AAC-TMV

Author: wroser on 29-10-2017, 21:58
Rarandoi Veduka Chudham (2017) Telugu - 720p - WEB-HD - AVC - AAC-TMV







General
Format                      : MPEG-4
Format profile              : Base Media / Version 2
Codec ID                    : mp42 (isom/mp42)
File size                   : 1.63 GiB
Duration                    : 2 h 24 min
Overall bit rate mode       : Variable
Overall bit rate            : 1 613 kb/s
Encoded date                : UTC 2017-10-29 08:15:42
Tagged date                 : UTC 2017-10-29 08:15:42
gsst                        : 0
gstd                        : 8662041

Video
ID                          : 1
Format                      : AVC
Format/Info                 : Advanced Video Codec
Format profile              : [email protected]
Format settings, CABAC      : Yes
Format settings, RefFrames  : 3 frames
Codec ID                    : avc1
Codec ID/Info               : Advanced Video Coding
Duration                    : 2 h 24 min
Bit rate                    : 1 483 kb/s
Width                       : 1 280 pixels
Height                      : 720 pixels
Display aspect ratio        : 16:9
Frame rate mode             : Variable
Frame rate                  : 23.976 (24000/1001) FPS
Minimum frame rate          : 23.974 FPS
Maximum frame rate          : 23.981 FPS
Color space                 : YUV
Chroma subsampling          : 4:2:0
Bit depth                   : 8 bits
Scan type                   : Progressive
Bits/(Pixel*Frame)          : 0.067
Stream size                 : 1.50 GiB (92%)
Title                       : ISO Media file produced by Google Inc. Created on: 10/29/2017.
Encoded date                : UTC 2017-10-29 08:15:42
Tagged date                 : UTC 2017-10-29 08:15:42
Color range                 : Limited
Color primaries             : BT.709
Transfer characteristics    : BT.709
Matrix coefficients         : BT.709

Audio
ID                          : 2
Format                      : AAC
Format/Info                 : Advanced Audio Codec
Format profile              : LC
Codec ID                    : 40
Duration                    : 2 h 24 min
Bit rate mode               : Variable
Bit rate                    : 126 kb/s
Channel(s)                  : 2 channels
Channel positions           : Front: L R
Sampling rate               : 44.1 kHz
Frame rate                  : 43.066 FPS (1024 SPF)
Compression mode            : Lossy
Stream size                 : 130 MiB (8%)
Title                       : ISO Media file produced by Google Inc. Created on: 10/29/2017.
Encoded date                : UTC 2017-10-29 08:15:42
Tagged date                 : UTC 2017-10-29 08:15:42



Rarandoi Veduka Chudham (2017) Telugu - 720p - WEB-HD - AVC - AAC-TMVRarandoi Veduka Chudham (2017) Telugu - 720p - WEB-HD - AVC - AAC-TMVRarandoi Veduka Chudham (2017) Telugu - 720p - WEB-HD - AVC - AAC-TMVRarandoi Veduka Chudham (2017) Telugu - 720p - WEB-HD - AVC - AAC-TMVRarandoi Veduka Chudham (2017) Telugu - 720p - WEB-HD - AVC - AAC-TMV


SINGLE DIRECT FAST LINKS

http://www.heroupload.com/8d101b8696adb542/Rarandoi.Veduka.Chudham.2017.Telugu.WEB-HD.720p.AVC.AAC-TMV.MP4



http://filefloater.com/bBd/Rarandoi.Veduka.Chudham.2017.Telugu.WEB-HD.720p.AVC.AAC-TMV.MP4


Dear visitor, you are browsing our website as Guest.
We strongly recommend you to register and login to view hidden contents.

Comments:

Add Comments
Reply
  • Group: Members
  • ICQ:
  • Registration: 30.10.2017
  • Status: Currently Offline
  • 7 Comment
  • 0 Article
^
Народ у кого старый комп или ноут есть отличный способ при помощи небольшого патча можно играть
в любые современные игры с высокими настройками даже на самых слабых ПК. (Через сервис PLAYKEY)
GRAND THEFT AUTO V, ВЕДЬМАК 3, ASSASSIN'S CREED ORIGINS, COUNTER-STRIKE, WORLD OF TANKS и.т.д
Патч для бесплатного пользования сервисом скачивайте здесь.
Видео по установке и настройке патча смотрите тут.