Set as default Homepage|Bookmark
 
 
» » Vivegam (2017) Telugu - 700MB - 1CDRip - HDRip - XviD - MP3-MTR
Advertise

Vivegam (2017) Telugu - 700MB - 1CDRip - HDRip - XviD - MP3-MTR

Author: wroser on 30-09-2017, 10:53
Vivegam (2017) Telugu - 700MB - 1CDRip - HDRip - XviD - MP3-MTR






General
Format                      : AVI
Format/Info                 : Audio Video Interleave
File size                   : 750 MiB
Duration                    : 2 h 27 min
Overall bit rate mode       : Variable
Overall bit rate            : 708 kb/s

Video
ID                          : 0
Format                      : MPEG-4 Visual
Format profile              : Advanced [email protected]
Format settings, BVOP       : 2
Format settings, QPel       : No
Format settings, GMC        : No warppoints
Format settings, Matrix     : Default (H.263)
Codec ID                    : XVID
Codec ID/Hint               : XviD
Duration                    : 2 h 27 min
Bit rate                    : 571 kb/s
Width                       : 640 pixels
Height                      : 264 pixels
Display aspect ratio        : 2.40:1
Frame rate                  : 24.000 FPS
Color space                 : YUV
Chroma subsampling          : 4:2:0
Bit depth                   : 8 bits
Scan type                   : Progressive
Compression mode            : Lossy
Bits/(Pixel*Frame)          : 0.141
Stream size                 : 605 MiB (81%)
Writing library             : XviD 67

Audio
ID                          : 1
Format                      : MPEG Audio
Format version              : Version 1
Format profile              : Layer 3
Mode                        : Joint stereo
Mode extension              : MS Stereo
Codec ID                    : 55
Codec ID/Hint               : MP3
Duration                    : 2 h 27 min
Bit rate mode               : Variable
Bit rate                    : 128 kb/s
Channel(s)                  : 2 channels
Sampling rate               : 44.1 kHz
Compression mode            : Lossy
Stream size                 : 132 MiB (18%)
Alignment                   : Aligned on interleaves
Interleave, duration        : 26  ms (0.63 video frame)
Interleave, preload duratio : 177  ms
Writing library             : LAME3.99r
Encoding settings           : -m j -V 4 -q 3 -lowpass 17 --abr 128



Vivegam (2017) Telugu - 700MB - 1CDRip - HDRip - XviD - MP3-MTRVivegam (2017) Telugu - 700MB - 1CDRip - HDRip - XviD - MP3-MTRVivegam (2017) Telugu - 700MB - 1CDRip - HDRip - XviD - MP3-MTRVivegam (2017) Telugu - 700MB - 1CDRip - HDRip - XviD - MP3-MTRVivegam (2017) Telugu - 700MB - 1CDRip - HDRip - XviD - MP3-MTR



SINGLE DIRECT FAST LINKS

http://www.heroupload.com/6f62d53ebc7a7c75/Vivegam.2017.Telugu.Line.HDRip.XviD.MP3.700MB-MTR.avi



http://filefloater.com/3mz/Vivegam.2017.Telugu.Line.HDRip.XviD.MP3.700MB-MTR.avi



Dear visitor, you are browsing our website as Guest.
We strongly recommend you to register and login to view hidden contents.

Comments:

Add Comments