Set as default Homepage|Bookmark
 
 
» » Kumari 21F (2015) Telugu - 1080p - WEB-HD - AVC - AAC - MTR
Advertise

Kumari 21F (2015) Telugu - 1080p - WEB-HD - AVC - AAC - MTR

Author: wroser on 3-02-2017, 10:34
Kumari 21F (2015) Telugu - 1080p - WEB-HD - AVC - AAC - MTR






General
Format                                   : MPEG-4
Format profile                           : Base Media
Codec ID                                 : isom (isom/iso2/avc1/mp41)
File size                                : 2.53 GiB
Duration                                 : 2 h 11 min
Overall bit rate                         : 2 754 kb/s
Season                                   : 1
Part                                     : 1
ContentType                              : Short Film
Writing application                      : Lavf57.41.100

Video
ID                                       : 1
Format                                   : AVC
Format/Info                              : Advanced Video Codec
Format profile                           : [email protected]
Format settings, CABAC                   : Yes
Format settings, ReFrames                : 4 frames
Format settings, GOP                     : M=4, N=50
Codec ID                                 : avc1
Codec ID/Info                            : Advanced Video Coding
Duration                                 : 2 h 11 min
Bit rate                                 : 2 619 kb/s
Nominal bit rate                         : 3 500 kb/s
Width                                    : 1 920 pixels
Height                                   : 1 080 pixels
Display aspect ratio                     : 16:9
Frame rate mode                          : Constant
Frame rate                               : 25.000 FPS
Color space                              : YUV
Chroma subsampling                       : 4:2:0
Bit depth                                : 8 bits
Scan type                                : Progressive
Bits/(Pixel*Frame)                       : 0.051
Stream size                              : 2.41 GiB (95%)
Writing library                          : x264 core 148 r2694 3b70645
Encoding settings                        : cabac=1 / ref=3 / deblock=1:0:0 / analyse=0x3:0x113 / me=hex / subme=7 / psy=1 / psy_rd=1.00:0.00 / mixed_ref=1 / me_range=16 / chroma_me=1 / trellis=1 / 8x8dct=1 / cqm=0 / deadzone=21,11 / fast_pskip=1 / chroma_qp_offset=-2 / threads=34 / lookahead_threads=5 / sliced_threads=0 / nr=0 / decimate=1 / interlaced=0 / bluray_compat=0 / constrained_intra=0 / bframes=3 / b_pyramid=2 / b_adapt=1 / b_bias=0 / direct=1 / weightb=1 / open_gop=0 / weightp=2 / keyint=50 / keyint_min=26 / scenecut=0 / intra_refresh=0 / rc_lookahead=40 / rc=cbr / mbtree=1 / bitrate=3500 / ratetol=1.0 / qcomp=0.60 / qpmin=0 / qpmax=69 / qpstep=4 / vbv_maxrate=3500 / vbv_bufsize=3500 / nal_hrd=none / filler=0 / ip_ratio=1.40 / aq=1:1.00
Tagged date                              : UTC 2017-02-01 14:30:10

Audio
ID                                       : 2
Format                                   : AAC
Format/Info                              : Advanced Audio Codec
Format profile                           : LC
Codec ID                                 : 40
Duration                                 : 2 h 11 min
Source duration                          : 2 h 11 min
Source_Duration_LastFrame                : -10 ms
Bit rate mode                            : Constant
Bit rate                                 : 132 kb/s
Channel(s)                               : 2 channels
Channel positions                        : Front: L R
Sampling rate                            : 48.0 kHz
Frame rate                               : 46.875 FPS (1024 spf)
Compression mode                         : Lossy
Stream size                              : 124 MiB (5%)
Source stream size                       : 124 MiB (5%)
Default                                  : Yes
Alternate group                          : 1
Tagged date                              : UTC 2017-02-01 14:30:10




Kumari 21F (2015) Telugu - 1080p - WEB-HD - AVC - AAC - MTR
Kumari 21F (2015) Telugu - 1080p - WEB-HD - AVC - AAC - MTR
Kumari 21F (2015) Telugu - 1080p - WEB-HD - AVC - AAC - MTR


[B]SINGLE DIRECT FAST LINKS[/B]

http://www.heroupload.com/a80e5a248b0d4e08/Kumari.21F.2015.Telugu.WEB-HD.1080p.AVC.AAC-TMV.mp4


[B]700MB LINKS[/B]



http://www.heroupload.com/cc8b48f0f99e7cd3/Kumari.21F.2015.Telugu.WEB-HD.1080p.AVC.AAC-TMV.mp4.001
http://www.heroupload.com/b4a2d44db738bd80/Kumari.21F.2015.Telugu.WEB-HD.1080p.AVC.AAC-TMV.mp4.002
http://www.heroupload.com/77817346728bf4e9/Kumari.21F.2015.Telugu.WEB-HD.1080p.AVC.AAC-TMV.mp4.003
http://www.heroupload.com/2b78d7498d9b726d/Kumari.21F.2015.Telugu.WEB-HD.1080p.AVC.AAC-TMV.mp4.004





Dear visitor, you are browsing our website as Guest.
We strongly recommend you to register and login to view hidden contents.

Comments:

Add Comments