Set as default Homepage|Bookmark
 
 
» » Yaman (2017) Telugu - 700MB - 1CDRip - HDRip - XviD - MP3 ( Line Audio) HC-ESub-TMV
Advertise

Yaman (2017) Telugu - 700MB - 1CDRip - HDRip - XviD - MP3 ( Line Audio) HC-ESub-TMV

Author: wroser on 29-03-2017, 22:44
Yaman (2017) Telugu - 700MB - 1CDRip - HDRip - XviD - MP3 ( Line Audio) HC-ESub-TMV





General
Format                                   : AVI
Format/Info                              : Audio Video Interleave
File size                                : 684 MiB
Duration                                 : 2 h 31 min
Overall bit rate mode                    : Variable
Overall bit rate                         : 630 kb/s

Video
ID                                       : 0
Format                                   : MPEG-4 Visual
Format profile                           : Advanced [email protected]
Format settings, BVOP                    : 2
Format settings, QPel                    : No
Format settings, GMC                     : No warppoints
Format settings, Matrix                  : Default (H.263)
Codec ID                                 : XVID
Codec ID/Hint                            : XviD
Duration                                 : 2 h 31 min
Bit rate                                 : 531 kb/s
Width                                    : 704 pixels
Height                                   : 312 pixels
Display aspect ratio                     : 2.25:1
Frame rate                               : 24.000 FPS
Color space                              : YUV
Chroma subsampling                       : 4:2:0
Bit depth                                : 8 bits
Scan type                                : Progressive
Compression mode                         : Lossy
Bits/(Pixel*Frame)                       : 0.101
Stream size                              : 577 MiB (84%)
Writing library                          : XviD 67

Audio
ID                                       : 1
Format                                   : MPEG Audio
Format version                           : Version 1
Format profile                           : Layer 3
Mode                                     : Joint stereo
Mode extension                           : MS Stereo
Codec ID                                 : 55
Codec ID/Hint                            : MP3
Duration                                 : 2 h 31 min
Bit rate mode                            : Variable
Bit rate                                 : 86.1 kb/s
Nominal bit rate                         : 96.0 kb/s
Channel(s)                               : 2 channels
Sampling rate                            : 44.1 kHz
Compression mode                         : Lossy
Stream size                              : 93.5 MiB (14%)
Alignment                                : Aligned on interleaves
Interleave, duration                     : 26  ms (0.63 video frame)
Interleave, preload duration             : 96  ms
Writing library                          : LAME3.99r
Encoding settings                        : -m j -V 4 -q 3 -lowpass 15.1 --abr 96


Yaman (2017) Telugu - 700MB - 1CDRip - HDRip - XviD - MP3 ( Line Audio) HC-ESub-TMV
Yaman (2017) Telugu - 700MB - 1CDRip - HDRip - XviD - MP3 ( Line Audio) HC-ESub-TMVYaman (2017) Telugu - 700MB - 1CDRip - HDRip - XviD - MP3 ( Line Audio) HC-ESub-TMVYaman (2017) Telugu - 700MB - 1CDRip - HDRip - XviD - MP3 ( Line Audio) HC-ESub-TMV


[B]SINGLE DIRECT FAST LINKS[/B]



http://www.heroupload.com/ccc6e691c797b299/Yaman.2017.Telugu.HDRip.XviD.700MB.Line.Audio.MP3.HC-ESub-TMV.avi



Dear visitor, you are browsing our website as Guest.
We strongly recommend you to register and login to view hidden contents.

Comments:

Add Comments