Set as default Homepage|Bookmark
 
 
» » GautamiPutra Satakarni (2017) Telugu - 700MB - 1CDRip - HDRip - XviD - MP3-TMV
Advertise

GautamiPutra Satakarni (2017) Telugu - 700MB - 1CDRip - HDRip - XviD - MP3-TMV

Author: wroser on 27-03-2017, 07:45
GautamiPutra Satakarni (2017) Telugu - 700MB - 1CDRip - HDRip - XviD - MP3-TMV





General
Format                                   : AVI
Format/Info                              : Audio Video Interleave
File size                                : 698 MiB
Duration                                 : 2 h 7 min
Overall bit rate mode                    : Variable
Overall bit rate                         : 767 kb/s

Video
ID                                       : 0
Format                                   : MPEG-4 Visual
Format profile                           : Advanced [email protected]
Format settings, BVOP                    : 2
Format settings, QPel                    : No
Format settings, GMC                     : No warppoints
Format settings, Matrix                  : Default (H.263)
Codec ID                                 : XVID
Codec ID/Hint                            : XviD
Duration                                 : 2 h 7 min
Bit rate                                 : 659 kb/s
Width                                    : 704 pixels
Height                                   : 296 pixels
Display aspect ratio                     : 2.40:1
Frame rate                               : 25.000 FPS
Color space                              : YUV
Chroma subsampling                       : 4:2:0
Bit depth                                : 8 bits
Scan type                                : Progressive
Compression mode                         : Lossy
Bits/(Pixel*Frame)                       : 0.127
Stream size                              : 600 MiB (86%)
Writing library                          : XviD 67

Audio
ID                                       : 1
Format                                   : MPEG Audio
Format version                           : Version 1
Format profile                           : Layer 3
Mode                                     : Joint stereo
Mode extension                           : MS Stereo
Codec ID                                 : 55
Codec ID/Hint                            : MP3
Duration                                 : 2 h 7 min
Bit rate mode                            : Variable
Bit rate                                 : 96.0 kb/s
Channel(s)                               : 2 channels
Sampling rate                            : 44.1 kHz
Compression mode                         : Lossy
Stream size                              : 87.0 MiB (12%)
Alignment                                : Aligned on interleaves
Interleave, duration                     : 26  ms (0.65 video frame)
Interleave, preload duration             : 87  ms
Writing library                          : LAME3.99r
Encoding settings                        : -m j -V 4 -q 3 -lowpass 15.1 --abr 96



GautamiPutra Satakarni (2017) Telugu - 700MB - 1CDRip - HDRip - XviD - MP3-TMV
GautamiPutra Satakarni (2017) Telugu - 700MB - 1CDRip - HDRip - XviD - MP3-TMVGautamiPutra Satakarni (2017) Telugu - 700MB - 1CDRip - HDRip - XviD - MP3-TMVGautamiPutra Satakarni (2017) Telugu - 700MB - 1CDRip - HDRip - XviD - MP3-TMV

[B]SINGLE DIRECT FAST LINKS[/B]

http://www.heroupload.com/625d5c841cbd91b8/GautamiPutra.Satakarni.2017.Telugu.HDRip.XviD.700MB.MP3-TMV.avi



Dear visitor, you are browsing our website as Guest.
We strongly recommend you to register and login to view hidden contents.

Comments:

Add Comments