Set as default Homepage|Bookmark
 
 
» » Shatamanam Bhavati (2017) Telugu - 700MB - SDTV - x264 - AAC - WR Exclusive
Advertise

Shatamanam Bhavati (2017) Telugu - 700MB - SDTV - x264 - AAC - WR Exclusive

Author: wroser on 26-03-2017, 17:29
Shatamanam Bhavati (2017) Telugu - 700MB - SDTV - x264 - AAC - WR Exclusive





General
Format                                   : MPEG-4
Format profile                           : Base Media
Codec ID                                 : isom (isom/iso2/avc1/mp41)
File size                                : 715 MiB
Duration                                 : 2 h 11 min
Overall bit rate                         : 759 kb/s
Writing application                      : Lavf55.19.104

Video
ID                                       : 1
Format                                   : AVC
Format/Info                              : Advanced Video Codec
Format profile                           : [email protected]
Format settings, CABAC                   : Yes
Format settings, ReFrames                : 2 frames
Format settings, GOP                     : M=4, N=25
Codec ID                                 : avc1
Codec ID/Info                            : Advanced Video Coding
Duration                                 : 2 h 11 min
Bit rate                                 : 691 kb/s
Width                                    : 640 pixels
Height                                   : 480 pixels
Display aspect ratio                     : 4:3
Frame rate mode                          : Constant
Frame rate                               : 25.000 FPS
Color space                              : YUV
Chroma subsampling                       : 4:2:0
Bit depth                                : 8 bits
Scan type                                : Progressive
Bits/(Pixel*Frame)                       : 0.090
Stream size                              : 651 MiB (91%)

Audio
ID                                       : 2
Format                                   : AAC
Format/Info                              : Advanced Audio Codec
Format profile                           : LC
Codec ID                                 : 40
Duration                                 : 2 h 11 min
Bit rate mode                            : Constant
Bit rate                                 : 64.0 kb/s
Channel(s)                               : 2 channels
Channel positions                        : Front: L R
Sampling rate                            : 48.0 kHz
Frame rate                               : 46.875 FPS (1024 spf)
Compression mode                         : Lossy
Stream size                              : 60.3 MiB (8%)
Default                                  : Yes
Alternate group                          : 1


Shatamanam Bhavati (2017) Telugu - 700MB - SDTV - x264 - AAC - WR Exclusive
Shatamanam Bhavati (2017) Telugu - 700MB - SDTV - x264 - AAC - WR ExclusiveShatamanam Bhavati (2017) Telugu - 700MB - SDTV - x264 - AAC - WR ExclusiveShatamanam Bhavati (2017) Telugu - 700MB - SDTV - x264 - AAC - WR ExclusiveShatamanam Bhavati (2017) Telugu - 700MB - SDTV - x264 - AAC - WR ExclusiveShatamanam Bhavati (2017) Telugu - 700MB - SDTV - x264 - AAC - WR Exclusive

[B]SINGLE DIRECT FAST LINKS[/B]

http://www.heroupload.com/e5a95d48b398e830/Sathamanam.Bhavati.2017.Telugu.SDTV.UNTOUCHED.MP4.AAC.700MB.mp4


Dear visitor, you are browsing our website as Guest.
We strongly recommend you to register and login to view hidden contents.

Comments:

Add Comments