Set as default Homepage|Bookmark
 
 
» » Bhaskar Oru Rascal (2018) Tamil - 700MB - 1CDRip - HDRip - XviD - MP3-MTR
Advertise

Bhaskar Oru Rascal (2018) Tamil - 700MB - 1CDRip - HDRip - XviD - MP3-MTR

Author: wroser on 31-05-2018, 21:39
Bhaskar Oru Rascal (2018) Tamil - 700MB - 1CDRip - HDRip - XviD - MP3-MTR





General
Format                      : AVI
Format/Info                 : Audio Video Interleave
File size                   : 715 MiB
Duration                    : 2 h 30 min
Overall bit rate            : 664 kb/s

Video
ID                          : 0
Format                      : MPEG-4 Visual
Format profile              : Advanced [email protected]
Format settings, BVOP       : 2
Format settings, QPel       : No
Format settings, GMC        : No warppoints
Format settings, Matrix     : Default (H.263)
Codec ID                    : XVID
Codec ID/Hint               : XviD
Duration                    : 2 h 30 min
Bit rate                    : 562 kb/s
Width                       : 640 pixels
Height                      : 264 pixels
Display aspect ratio        : 2.40:1
Frame rate                  : 24.000 FPS
Color space                 : YUV
Chroma subsampling          : 4:2:0
Bit depth                   : 8 bits
Scan type                   : Progressive
Compression mode            : Lossy
Bits/(Pixel*Frame)          : 0.139
Stream size                 : 606 MiB (85%)
Writing library             : XviD 67

Audio
ID                          : 1
Format                      : MPEG Audio
Format version              : Version 1
Format profile              : Layer 3
Mode                        : Joint stereo
Mode extension              : MS Stereo
Codec ID                    : 55
Codec ID/Hint               : MP3
Duration                    : 2 h 30 min
Bit rate mode               : Constant
Bit rate                    : 96.0 kb/s
Channel(s)                  : 2 channels
Sampling rate               : 48.0 kHz
Compression mode            : Lossy
Stream size                 : 103 MiB (14%)
Alignment                   : Aligned on interleaves
Interleave, duration        : 167  ms (4.00 video frames)
Interleave, preload duratio : 216  ms
Title                       : Bhaskar
Writing library             : LAME3.99.5



Bhaskar Oru Rascal (2018) Tamil - 700MB - 1CDRip - HDRip - XviD - MP3-MTRBhaskar Oru Rascal (2018) Tamil - 700MB - 1CDRip - HDRip - XviD - MP3-MTRBhaskar Oru Rascal (2018) Tamil - 700MB - 1CDRip - HDRip - XviD - MP3-MTRBhaskar Oru Rascal (2018) Tamil - 700MB - 1CDRip - HDRip - XviD - MP3-MTRBhaskar Oru Rascal (2018) Tamil - 700MB - 1CDRip - HDRip - XviD - MP3-MTRBhaskar Oru Rascal (2018) Tamil - 700MB - 1CDRip - HDRip - XviD - MP3-MTR

SINGLE DIRECT FAST LINKS


http://www.heroupload.us/8f62e60443384727/Bhaskar.Oru.Rascal.2018.Tamil.HDRip.XviD.MP3.700MB-MTR.avi



http://filefloater.com/Thv/Bhaskar.Oru.Rascal.2018.Tamil.HDRip.XviD.MP3.700MB-MTR.avi



Теги: Bhaskar

Dear visitor, you are browsing our website as Guest.
We strongly recommend you to register and login to view hidden contents.

Comments:

Add Comments
Reply
  • Group: Members
  • ICQ:
  • Registration: 22.03.2018
  • Status: Currently Offline
  • 529 Comment
  • 0 Article
^
DOWNLOAD :

http://thescenebox.com/444162c048d9368b/r352s3f45
http://thescenebox.com/444162c048d9368b/345ds623



Free download Place, Free File Downloads, Free torrent site, Free torrent downloads, Your Torrent engine, yourfilebb20180, yourfilebb280, yourfilebboo0
, Torrent download
Reply
  • Group: Guests
  • ICQ:
  • Registration: --
  • Status:
  • 0 Comment
  • 0 Article
^
Tamil movie industry made lot of profit from there movies and give many hit and super hit movies like bhaskar oru rascal. The story of this film is about on do my essay for the child who is very naughty boy in the school.