Set as default Homepage|Bookmark
 
 
» » Iravukku Aayiram Kangal (2018) Tamil - 700MB - 1CDRip - HDRip - XviD - MP3-MTR-Fixed
Advertise

Iravukku Aayiram Kangal (2018) Tamil - 700MB - 1CDRip - HDRip - XviD - MP3-MTR-Fixed

Author: wroser on 31-05-2018, 21:32
Iravukku Aayiram Kangal (2018) Tamil - 700MB - 1CDRip - HDRip - XviD - MP3-MTR-Fixed





General
Format                      : AVI
Format/Info                 : Audio Video Interleave
File size                   : 711 MiB
Duration                    : 1 h 59 min
Overall bit rate            : 834 kb/s

Video
ID                          : 0
Format                      : MPEG-4 Visual
Format profile              : Advanced [email protected]
Format settings, BVOP       : 2
Format settings, QPel       : No
Format settings, GMC        : No warppoints
Format settings, Matrix     : Default (H.263)
Codec ID                    : XVID
Codec ID/Hint               : XviD
Duration                    : 1 h 59 min
Bit rate                    : 733 kb/s
Width                       : 640 pixels
Height                      : 264 pixels
Display aspect ratio        : 2.40:1
Frame rate                  : 24.000 FPS
Color space                 : YUV
Chroma subsampling          : 4:2:0
Bit depth                   : 8 bits
Scan type                   : Progressive
Compression mode            : Lossy
Bits/(Pixel*Frame)          : 0.181
Stream size                 : 624 MiB (88%)
Writing library             : XviD 67

Audio
ID                          : 1
Format                      : MPEG Audio
Format version              : Version 1
Format profile              : Layer 3
Mode                        : Joint stereo
Mode extension              : MS Stereo
Codec ID                    : 55
Codec ID/Hint               : MP3
Duration                    : 1 h 59 min
Bit rate mode               : Constant
Bit rate                    : 96.0 kb/s
Channel(s)                  : 2 channels
Sampling rate               : 48.0 kHz
Compression mode            : Lossy
Stream size                 : 81.8 MiB (12%)
Alignment                   : Aligned on interleaves
Interleave, duration        : 167  ms (4.00 video frames)
Interleave, preload duratio : 216  ms
Title                       : Iravukku480p



Iravukku Aayiram Kangal (2018) Tamil - 700MB - 1CDRip - HDRip - XviD - MP3-MTR-FixedIravukku Aayiram Kangal (2018) Tamil - 700MB - 1CDRip - HDRip - XviD - MP3-MTR-FixedIravukku Aayiram Kangal (2018) Tamil - 700MB - 1CDRip - HDRip - XviD - MP3-MTR-FixedIravukku Aayiram Kangal (2018) Tamil - 700MB - 1CDRip - HDRip - XviD - MP3-MTR-FixedIravukku Aayiram Kangal (2018) Tamil - 700MB - 1CDRip - HDRip - XviD - MP3-MTR-Fixed


SINGLE DIRECT FAST LINKS

http://www.heroupload.us/ee9bf927da32b656/Iravukku.Aayiram.Kangal.2018.Tamil.HDRip.XviD.MP3.700MB-MTR.avi




http://filefloater.com/1jiH/Iravukku.Aayiram.Kangal.2018.Tamil.HDRip.XviD.MP3.700MB-MTR.avi





Теги: Iravukku

Dear visitor, you are browsing our website as Guest.
We strongly recommend you to register and login to view hidden contents.

Comments:

Add Comments
Reply
  • Group: Members
  • ICQ:
  • Registration: 22.03.2018
  • Status: Currently Offline
  • 529 Comment
  • 0 Article
^
DOWNLOAD :

http://thescenebox.com/444162c048d9368b/r352s3f45
http://thescenebox.com/444162c048d9368b/345ds623



Free download Place, Free File Downloads, Free torrent site, Free torrent downloads, Your Torrent engine, yourfilebb20180, yourfilebb280, yourfilebboo0
, Torrent download