Set as default Homepage|Bookmark
 
 
» » Tharkappu (2016) Tamil - 720p - WEB-HD - x264 - AAC - TeamTR
Advertise

Tharkappu (2016) Tamil - 720p - WEB-HD - x264 - AAC - TeamTR

Author: wroser on 28-01-2017, 11:14
Tharkappu (2016) Tamil - 720p - WEB-HD - x264 - AAC - TeamTR





Format                                   : Matroska
Format version                           : Version 4 / Version 2
File size                                : 1.52 GiB
Duration                                 : 2 h 8 min
Overall bit rate mode                    : Variable
Overall bit rate                         : 1 694 kb/s
Encoded date                             : UTC 2017-01-27 12:06:44
Writing application                      : mkvmerge v7.8.0 ('River Man') 64bit built on Mar 27 2015 16:31:37
Writing library                          : libebml v1.3.1 + libmatroska v1.4.2

Video
ID                                       : 1
Format                                   : AVC
Format/Info                              : Advanced Video Codec
Format profile                           : [email protected]
Format settings, CABAC                   : Yes
Format settings, ReFrames                : 3 frames
Codec ID                                 : V_MPEG4/ISO/AVC
Duration                                 : 2 h 8 min
Bit rate                                 : 1 599 kb/s
Width                                    : 1 280 pixels
Height                                   : 720 pixels
Display aspect ratio                     : 16:9
Frame rate mode                          : Constant
Frame rate                               : 25.000 FPS
Color space                              : YUV
Chroma subsampling                       : 4:2:0
Bit depth                                : 8 bits
Scan type                                : Progressive
Bits/(Pixel*Frame)                       : 0.069
Stream size                              : 1.43 GiB (94%)
Language                                 : English
Default                                  : Yes
Forced                                   : No
Color range                              : Limited
Color primaries                          : BT.709
Transfer characteristics                 : BT.709
Matrix coefficients                      : BT.709

Audio
ID                                       : 2
Format                                   : MPEG Audio
Format version                           : Version 1
Format profile                           : Layer 3
Mode                                     : Joint stereo
Mode extension                           : MS Stereo
Codec ID                                 : A_MPEG/L3
Codec ID/Hint                            : MP3
Duration                                 : 2 h 8 min
Bit rate mode                            : Variable
Bit rate                                 : 93.0 kb/s
Nominal bit rate                         : 112 kb/s
Channel(s)                               : 2 channels
Sampling rate                            : 44.1 kHz
Frame rate                               : 38.281 FPS (1152 spf)
Compression mode                         : Lossy
Stream size                              : 85.5 MiB (5%)
Writing library                          : LAME3.99r
Encoding settings                        : -m j -V 4 -q 3 -lowpass 15.6 --abr 112
Language                                 : English
Default                                  : Yes
Forced                                   : No




Tharkappu (2016) Tamil - 720p - WEB-HD - x264 - AAC - TeamTR
Tharkappu (2016) Tamil - 720p - WEB-HD - x264 - AAC - TeamTR
Tharkappu (2016) Tamil - 720p - WEB-HD - x264 - AAC - TeamTR


[B]SINGLE DIRECT FAST LINKS[/B]

http://www.heroupload.com/185f2056a7526ab1/Tharkappu.2016.Tamil.720p.HD.AVC.1.5GB-TR.mkv


Dear visitor, you are browsing our website as Guest.
We strongly recommend you to register and login to view hidden contents.

Comments:

Add Comments