Set as default Homepage|Bookmark
 
 
» » Tharkappu (2016) Tamil - 700MB - WEB-HDRip - XviD - MP3 - TeamTR
Advertise

Tharkappu (2016) Tamil - 700MB - WEB-HDRip - XviD - MP3 - TeamTR

Author: wroser on 28-01-2017, 11:10

Tharkappu (2016) Tamil - 700MB - WEB-HDRip - XviD - MP3 - TeamTR






General
Format                                   : AVI
Format/Info                              : Audio Video Interleave
File size                                : 718 MiB
Duration                                 : 2 h 8 min
Overall bit rate mode                    : Variable
Overall bit rate                         : 782 kb/s

Video
ID                                       : 0
Format                                   : MPEG-4 Visual
Format profile                           : Advanced [email protected]
Format settings, BVOP                    : 2
Format settings, QPel                    : No
Format settings, GMC                     : No warppoints
Format settings, Matrix                  : Default (H.263)
Codec ID                                 : XVID
Codec ID/Hint                            : XviD
Duration                                 : 2 h 8 min
Bit rate                                 : 676 kb/s
Width                                    : 640 pixels
Height                                   : 352 pixels
Display aspect ratio                     : 16:9
Frame rate                               : 25.000 FPS
Color space                              : YUV
Chroma subsampling                       : 4:2:0
Bit depth                                : 8 bits
Scan type                                : Progressive
Compression mode                         : Lossy
Bits/(Pixel*Frame)                       : 0.120
Stream size                              : 621 MiB (86%)
Writing library                          : XviD 67

Audio
ID                                       : 1
Format                                   : MPEG Audio
Format version                           : Version 1
Format profile                           : Layer 3
Mode                                     : Joint stereo
Mode extension                           : MS Stereo
Codec ID                                 : 55
Codec ID/Hint                            : MP3
Duration                                 : 2 h 8 min
Bit rate mode                            : Variable
Bit rate                                 : 93.0 kb/s
Nominal bit rate                         : 112 kb/s
Channel(s)                               : 2 channels
Sampling rate                            : 44.1 kHz
Compression mode                         : Lossy
Stream size                              : 85.4 MiB (12%)
Alignment                                : Aligned on interleaves
Interleave, duration                     : 26  ms (0.65 video frame)
Interleave, preload duration             : 150  ms
Title                                    : TharkapuFix
Writing library                          : LAME3.99r
Encoding settings                        : -m j -V 4 -q 3 -lowpass 15.6 --abr 112



Tharkappu (2016) Tamil - 700MB - WEB-HDRip - XviD - MP3 - TeamTR
Tharkappu (2016) Tamil - 700MB - WEB-HDRip - XviD - MP3 - TeamTR
Tharkappu (2016) Tamil - 700MB - WEB-HDRip - XviD - MP3 - TeamTR
Tharkappu (2016) Tamil - 700MB - WEB-HDRip - XviD - MP3 - TeamTR
Tharkappu (2016) Tamil - 700MB - WEB-HDRip - XviD - MP3 - TeamTR


[B]SINGLE DIRECT FAST LINKS[/B]


http://www.heroupload.com/a8a833c1ae4e9ffc/Tharkappu.2016.Tamil.HDRip.Xvid.700MB-TR.avi





Dear visitor, you are browsing our website as Guest.
We strongly recommend you to register and login to view hidden contents.

Comments:

Add Comments