Set as default Homepage|Bookmark
 
 
» » Moo (2016) Tamil - 1080p - WEB-HD - x264 - AAC - ESubs - TeamTR
Advertise

Moo (2016) Tamil - 1080p - WEB-HD - x264 - AAC - ESubs - TeamTR

Author: wroser on 28-01-2017, 11:05
Moo (2016) Tamil - 1080p - WEB-HD - x264 - AAC - ESubs - TeamTR






General
Format                                   : MPEG-4
Format profile                           : Base Media
Codec ID                                 : isom (isom/iso2/avc1/mp41)
File size                                : 2.45 GiB
Duration                                 : 2 h 8 min
Overall bit rate                         : 2 730 kb/s
Writing application                      : Lavf57.25.100

Video
ID                                       : 1
Format                                   : AVC
Format/Info                              : Advanced Video Codec
Format profile                           : [email protected]
Format settings, CABAC                   : Yes
Format settings, ReFrames                : 4 frames
Codec ID                                 : avc1
Codec ID/Info                            : Advanced Video Coding
Duration                                 : 2 h 8 min
Bit rate                                 : 2 612 kb/s
Width                                    : 1 920 pixels
Height                                   : 1 080 pixels
Display aspect ratio                     : 16:9
Frame rate mode                          : Constant
Frame rate                               : 24.000 FPS
Color space                              : YUV
Chroma subsampling                       : 4:2:0
Bit depth                                : 8 bits
Scan type                                : Progressive
Bits/(Pixel*Frame)                       : 0.052
Stream size                              : 2.34 GiB (96%)
Writing library                          : x264 core 148
Encoding settings                        : cabac=1 / ref=3 / deblock=1:0:0 / analyse=0x3:0x113 / me=hex / subme=7 / psy=1 / psy_rd=1.00:0.00 / mixed_ref=1 / me_range=16 / chroma_me=1 / trellis=1 / 8x8dct=1 / cqm=0 / deadzone=21,11 / fast_pskip=1 / chroma_qp_offset=-2 / threads=16 / lookahead_threads=2 / sliced_threads=0 / nr=0 / decimate=1 / interlaced=0 / bluray_compat=0 / constrained_intra=0 / bframes=3 / b_pyramid=2 / b_adapt=1 / b_bias=0 / direct=1 / weightb=1 / open_gop=0 / weightp=2 / keyint=96 / keyint_min=9 / scenecut=0 / intra_refresh=0 / rc_lookahead=40 / rc=crf / mbtree=1 / crf=23.0 / qcomp=0.60 / qpmin=0 / qpmax=69 / qpstep=4 / vbv_maxrate=5083 / vbv_bufsize=5083 / crf_max=0.0 / nal_hrd=none / filler=0 / ip_ratio=1.40 / aq=1:1.00
Language                                 : English

Audio
ID                                       : 2
Format                                   : AAC
Format/Info                              : Advanced Audio Codec
Format profile                           : LC
Codec ID                                 : 40
Duration                                 : 2 h 8 min
Duration_LastFrame                       : -1 ms
Bit rate mode                            : Constant
Bit rate                                 : 112 kb/s
Channel(s)                               : 2 channels
Channel positions                        : Front: L R
Sampling rate                            : 44.1 kHz
Frame rate                               : 43.066 FPS (1024 spf)
Compression mode                         : Lossy
Stream size                              : 103 MiB (4%)
Language                                 : English
Default                                  : Yes
Alternate group                          : 1



Moo (2016) Tamil - 1080p - WEB-HD - x264 - AAC - ESubs - TeamTR
Moo (2016) Tamil - 1080p - WEB-HD - x264 - AAC - ESubs - TeamTR
Moo (2016) Tamil - 1080p - WEB-HD - x264 - AAC - ESubs - TeamTR

[B]SINGLE DIRECT FAST LINKS[/B]

http://www.heroupload.com/c1661756c0d1f4c0/Moo.2016.1080p.HD.AVC.MP4.ESubs.Tamil-TR.mp4


[B]700MB LINKS[/B]



http://www.heroupload.com/b17c69e96b6ed2f4/Moo.2016.1080p.HD.AVC.MP4.ESubs.Tamil-TR.mp4.001
http://www.heroupload.com/1824842a2f652451/Moo.2016.1080p.HD.AVC.MP4.ESubs.Tamil-TR.mp4.002
http://www.heroupload.com/5ce9c3812906f170/Moo.2016.1080p.HD.AVC.MP4.ESubs.Tamil-TR.mp4.003
http://www.heroupload.com/9432d0d52fa4ce58/Moo.2016.1080p.HD.AVC.MP4.ESubs.Tamil-TR.mp4.004
http://www.heroupload.com/1f4fc7e1fe2f8a00/Moo.2016.1080p.HD.AVC.MP4.ESubs.Tamil-TR.srt





Dear visitor, you are browsing our website as Guest.
We strongly recommend you to register and login to view hidden contents.

Comments:

Add Comments