Set as default Homepage|Bookmark
 
 
» » Moo (2016) Tamil - 700MB - WEB-HDRip - XviD - MP3 - ESubs - TeamTR
Advertise

Moo (2016) Tamil - 700MB - WEB-HDRip - XviD - MP3 - ESubs - TeamTR

Author: wroser on 28-01-2017, 10:59
Moo (2016) Tamil - 700MB - WEB-HDRip - XviD - MP3 - ESubs - TeamTR





eneral
Format                                   : AVI
Format/Info                              : Audio Video Interleave
File size                                : 715 MiB
Duration                                 : 2 h 8 min
Overall bit rate                         : 779 kb/s

Video
ID                                       : 0
Format                                   : MPEG-4 Visual
Format profile                           : Advanced [email protected]
Format settings, BVOP                    : 2
Format settings, QPel                    : No
Format settings, GMC                     : No warppoints
Format settings, Matrix                  : Default (H.263)
Codec ID                                 : XVID
Codec ID/Hint                            : XviD
Duration                                 : 2 h 8 min
Bit rate                                 : 678 kb/s
Width                                    : 640 pixels
Height                                   : 264 pixels
Display aspect ratio                     : 2.40:1
Frame rate                               : 24.000 FPS
Color space                              : YUV
Chroma subsampling                       : 4:2:0
Bit depth                                : 8 bits
Scan type                                : Progressive
Compression mode                         : Lossy
Bits/(Pixel*Frame)                       : 0.167
Stream size                              : 621 MiB (87%)
Writing library                          : XviD 67

Audio
ID                                       : 1
Format                                   : MPEG Audio
Format version                           : Version 1
Format profile                           : Layer 3
Mode                                     : Joint stereo
Mode extension                           : MS Stereo
Codec ID                                 : 55
Codec ID/Hint                            : MP3
Duration                                 : 2 h 8 min
Bit rate mode                            : Constant
Bit rate                                 : 96.0 kb/s
Channel(s)                               : 2 channels
Sampling rate                            : 44.1 kHz
Compression mode                         : Lossy
Stream size                              : 88.0 MiB (12%)
Alignment                                : Aligned on interleaves
Interleave, duration                     : 167  ms (4.00 video frames)
Interleave, preload duration             : 209  ms
Writing library                          : LAME3.98.2



Moo (2016) Tamil - 700MB - WEB-HDRip - XviD - MP3 - ESubs - TeamTR
Moo (2016) Tamil - 700MB - WEB-HDRip - XviD - MP3 - ESubs - TeamTR
Moo (2016) Tamil - 700MB - WEB-HDRip - XviD - MP3 - ESubs - TeamTR



[B]SINGLE DIRECT FAST LINKS[/B]




http://www.heroupload.com/cf882a8d4543c01a/Moo.2016.HDRip.XviD.MP3.700MB.ESubs.Tamil-TR.avi
http://www.heroupload.com/5ac1d192a606fcee/Moo.2016.HDRip.XviD.MP3.700MB.ESubs.Tamil-TR.srt
Dear visitor, you are browsing our website as Guest.
We strongly recommend you to register and login to view hidden contents.

Comments:

Add Comments