Set as default Homepage|Bookmark
 
 
» » Aramm (2017) Tamil - 1080p - HDTVRip - x264 - DD5.1 - MTR
Advertise

Aramm (2017) Tamil - 1080p - HDTVRip - x264 - DD5.1 - MTR

Author: wroser on 15-01-2018, 00:43
Aramm (2017) Tamil - 1080p - HDTVRip - x264 - DD5.1 - MTR






General
Format                      : Matroska
Format version              : Version 4 / Version 2
File size                   : 3.17 GiB
Duration                    : 1 h 50 min
Overall bit rate            : 4 120 kb/s
Encoded date                : UTC 2018-01-14T09:00:06Z
Writing application         : HandBrake 1.0.7 2017040900
Writing library             : Lavf57.7.2

Video
ID                          : 1
Format                      : AVC
Format/Info                 : Advanced Video Codec
Format profile              : [email protected]
Format settings, CABAC      : Yes
Format settings, RefFrames  : 4 frames
Codec ID                    : V_MPEG4/ISO/AVC
Duration                    : 1 h 50 min
Bit rate                    : 3 901 kb/s
Width                       : 1 920 pixels
Height                      : 906 pixels
Display aspect ratio        : 2.119
Frame rate mode             : Constant
Frame rate                  : 25.000 FPS
Color space                 : YUV
Chroma subsampling          : 4:2:0
Bit depth                   : 8 bits
Scan type                   : Progressive
Bits/(Pixel*Frame)          : 0.090
Stream size                 : 2.93 GiB (93%)
Writing library             : x264 core 148 r2708 86b7198
Encoding settings           : cabac=1 / ref=1 / deblock=1:0:0 / analyse=0x1:0x111 / me=hex / subme=2 / psy=1 / psy_rd=1.00:0.00 / mixed_ref=0 / me_range=16 / chroma_me=1 / trellis=0 / 8x8dct=0 / cqm=0 / deadzone=21,11 / fast_pskip=1 / chroma_qp_offset=0 / threads=12 / lookahead_threads=4 / sliced_threads=0 / nr=0 / decimate=1 / interlaced=0 / bluray_compat=0 / constrained_intra=0 / bframes=3 / b_pyramid=2 / b_adapt=1 / b_bias=0 / direct=1 / weightb=1 / open_gop=0 / weightp=1 / keyint=250 / keyint_min=25 / scenecut=40 / intra_refresh=0 / rc_lookahead=10 / rc=abr / mbtree=1 / bitrate=3901 / ratetol=1.0 / qcomp=0.60 / qpmin=0 / qpmax=69 / qpstep=4 / vbv_maxrate=20000 / vbv_bufsize=25000 / nal_hrd=none / filler=0 / ip_ratio=1.40 / aq=1:1.00
Default                     : Yes
Forced                      : No
Color range                 : Limited
Color primaries             : BT.709
Transfer characteristics    : BT.709
Matrix coefficients         : BT.709

Audio
ID                          : 2
Format                      : AC-3
Format/Info                 : Audio Coding 3
Format settings, Endianness : Big
Codec ID                    : A_AC3
Duration                    : 1 h 50 min
Bit rate mode               : Constant
Bit rate                    : 224 kb/s
Channel(s)                  : 2 channels
Channel positions           : Front: L R
Sampling rate               : 32.0 kHz
Frame rate                  : 20.833 FPS (1536 SPF)
Bit depth                   : 16 bits
Compression mode            : Lossy
Delay relative to video     : -1 s 928 ms
Stream size                 : 176 MiB (5%)
Title                       : Stereo
Language                    : English
Service kind                : Complete Main
Default                     : Yes
Forced                      : No



Aramm (2017) Tamil - 1080p - HDTVRip - x264 - DD5.1 - MTRAramm (2017) Tamil - 1080p - HDTVRip - x264 - DD5.1 - MTRAramm (2017) Tamil - 1080p - HDTVRip - x264 - DD5.1 - MTRAramm (2017) Tamil - 1080p - HDTVRip - x264 - DD5.1 - MTR

SINGLE DIRECT FAST LINKS
https://www.heroupload.com/08ec3392ad697b5a/Aramm.2017.Tamil.1080p.HDTV.x264-MTR.mkv


http://filefloater.com/9qw/Aramm.2017.Tamil.1080p.HDTV.x264-MTR.mkv

700MB LINKS


https://www.heroupload.com/6a2a1fbc52ab1cb4/Aramm.2017.Tamil.1080p.HDTV.x264-MTR.part1.rar
https://www.heroupload.com/e64d3de2dba29af6/Aramm.2017.Tamil.1080p.HDTV.x264-MTR.part2.rar
https://www.heroupload.com/1054a17c8688b124/Aramm.2017.Tamil.1080p.HDTV.x264-MTR.part3.rar
https://www.heroupload.com/54a9350f05038ab6/Aramm.2017.Tamil.1080p.HDTV.x264-MTR.part4.rar
https://www.heroupload.com/2429ef1b7bea6998/Aramm.2017.Tamil.1080p.HDTV.x264-MTR.part5.rar



http://filefloater.com/9qx/Aramm.2017.Tamil.1080p.HDTV.x264-MTR.part1.rar
http://filefloater.com/9qy/Aramm.2017.Tamil.1080p.HDTV.x264-MTR.part2.rar
http://filefloater.com/9qz/Aramm.2017.Tamil.1080p.HDTV.x264-MTR.part3.rar
http://filefloater.com/4e0/Aramm.2017.Tamil.1080p.HDTV.x264-MTR.part4.rar
http://filefloater.com/4e1/Aramm.2017.Tamil.1080p.HDTV.x264-MTR.part5.rar



Теги: Aramm

Dear visitor, you are browsing our website as Guest.
We strongly recommend you to register and login to view hidden contents.

Comments:

Add Comments