Set as default Homepage|Bookmark
 
 
» » Kadaisi Bench Karthi (2017) Tamil - 1080p - WEB-HD - AVC - AAC - ESubs-MTR
Advertise

Kadaisi Bench Karthi (2017) Tamil - 1080p - WEB-HD - AVC - AAC - ESubs-MTR

Author: wroser on 16-11-2017, 22:25
Kadaisi Bench Karthi (2017) Tamil - 1080p - WEB-HD - AVC - AAC - ESubs-MTR

Kadaisi Bench Karthi (2017) Tamil - 1080p - WEB-HD - AVC - AAC - ESubs-MTR : 3.69 GiB





General
Format                      : MPEG-4
Format profile              : Base Media
Codec ID                    : isom (isom)
File size                   : 3.69 GiB
Duration                    : 2 h 1 min
Overall bit rate mode       : Variable
Overall bit rate            : 4 347 kb/s
Encoded date                : UTC 2017-11-16 18:21:07
Tagged date                 : UTC 2017-11-16 18:21:07
Writing application         : MkvToMp4 [www.mkvtomp4.ru] version 0.224 (x64)

Video
ID                          : 1
Format                      : AVC
Format/Info                 : Advanced Video Codec
Format profile              : [email protected]
Format settings, CABAC      : Yes
Format settings, RefFrames  : 3 frames
Codec ID                    : avc1
Codec ID/Info               : Advanced Video Coding
Duration                    : 2 h 1 min
Source duration             : 2 h 1 min
Bit rate mode               : Constant
Bit rate                    : 4 250 kb/s
Maximum bit rate            : 9 019 kb/s
Width                       : 1 920 pixels
Height                      : 1 080 pixels
Display aspect ratio        : 16:9
Frame rate mode             : Constant
Frame rate                  : 29.970 (30000/1001) FPS
Color space                 : YUV
Chroma subsampling          : 4:2:0
Bit depth                   : 8 bits
Scan type                   : Progressive
Bits/(Pixel*Frame)          : 0.068
Stream size                 : 3.45 GiB (94%)
Source stream size          : 3.60 GiB (98%)
Language                    : English
Tagged date                 : UTC 2017-11-16 18:21:13

Audio
ID                          : 2
Format                      : AAC
Format/Info                 : Advanced Audio Codec
Format profile              : LC
Codec ID                    : 40
Duration                    : 2 h 1 min
Bit rate mode               : Variable
Bit rate                    : 93.4 kb/s
Maximum bit rate            : 101 kb/s
Channel(s)                  : 2 channels
Channel positions           : Front: L R
Sampling rate               : 48.0 kHz
Frame rate                  : 46.875 FPS (1024 SPF)
Compression mode            : Lossy
Stream size                 : 81.1 MiB (2%)
Language                    : English
Default                     : Yes
Alternate group             : 1
Encoded date                : UTC 2017-11-16 18:21:11
Tagged date                 : UTC 2017-11-16 18:21:13



Kadaisi Bench Karthi (2017) Tamil - 1080p - WEB-HD - AVC - AAC - ESubs-MTRKadaisi Bench Karthi (2017) Tamil - 1080p - WEB-HD - AVC - AAC - ESubs-MTRKadaisi Bench Karthi (2017) Tamil - 1080p - WEB-HD - AVC - AAC - ESubs-MTR


SINGLE DIRECT FAST LINKS
http://www.heroupload.com/1262fd4078315dcc/Kadaisi.Bench.Karthi.2017.Tamil.1080p.HD.AVC.MP4.ESubs-MTR.mp4


http://filefloater.com/43q/Kadaisi.Bench.Karthi.2017.Tamil.1080p.HD.AVC.MP4.ESubs-MTR.mp4

1GB LINKS

http://www.heroupload.com/f7a77e26ba2e9e18/Kadaisi.Bench.Karthi.2017.Tamil.1080p.HD.AVC.MP4.ESubs-MTR.part1.rar
http://www.heroupload.com/fe1318c73302127a/Kadaisi.Bench.Karthi.2017.Tamil.1080p.HD.AVC.MP4.ESubs-MTR.part2.rar
http://www.heroupload.com/9039e5320361a9cd/Kadaisi.Bench.Karthi.2017.Tamil.1080p.HD.AVC.MP4.ESubs-MTR.part3.rar
http://www.heroupload.com/dbdf2efd41b4192d/Kadaisi.Bench.Karthi.2017.Tamil.1080p.HD.AVC.MP4.ESubs-MTR.part4.rar
http://www.heroupload.com/930ea9eb10f7a531/Kadaisi.Bench.Karthi.2017.Tamil.1080p.HD.AVC.MP4.ESubs-MTR.srt



http://filefloater.com/43r/Kadaisi.Bench.Karthi.2017.Tamil.1080p.HD.AVC.MP4.ESubs-MTR.part1.rar
http://filefloater.com/43s/Kadaisi.Bench.Karthi.2017.Tamil.1080p.HD.AVC.MP4.ESubs-MTR.part2.rar
http://filefloater.com/43t/Kadaisi.Bench.Karthi.2017.Tamil.1080p.HD.AVC.MP4.ESubs-MTR.part3.rar
http://filefloater.com/43u/Kadaisi.Bench.Karthi.2017.Tamil.1080p.HD.AVC.MP4.ESubs-MTR.part4.rar
http://filefloater.com/43v/Kadaisi.Bench.Karthi.2017.Tamil.1080p.HD.AVC.MP4.ESubs-MTR.srt



Теги: Kadaisi

Dear visitor, you are browsing our website as Guest.
We strongly recommend you to register and login to view hidden contents.

Comments:

Add Comments