Set as default Homepage|Bookmark
 
 
» » 2.0 (2018) Tamil - 1080p - HDTV - AVC - UNTOUCHED - AAC-BWT
Advertise

2.0 (2018) Tamil - 1080p - HDTV - AVC - UNTOUCHED - AAC-BWT

Author: wroser on 8-04-2019, 12:59
2.0 (2018) Tamil - 1080p - HDTV - AVC - UNTOUCHED - AAC-BWT




Format                                   : MPEG-4
Format profile                           : Base Media
Codec ID                                 : isom (isom)
File size                                : 4.99 GiB
Duration                                 : 2 h 32 min
Overall bit rate mode                    : Variable
Overall bit rate                         : 4 699 kb/s
Encoded date                             : UTC 2019-04-07 17:57:35
Tagged date                              : UTC 2019-04-07 17:57:35

Video
ID                                       : 1
Format                                   : AVC
Format/Info                              : Advanced Video Codec
Format profile                           : [email protected]
Format settings                          : CABAC / 4 Ref Frames
Format settings, CABAC                   : Yes
Format settings, RefFrames               : 4 frames
Codec ID                                 : avc1
Codec ID/Info                            : Advanced Video Coding
Duration                                 : 2 h 32 min
Bit rate                                 : 4 496 kb/s
Maximum bit rate                         : 18.3 Mb/s
Width                                    : 1 920 pixels
Height                                   : 1 080 pixels
Display aspect ratio                     : 16:9
Frame rate mode                          : Constant
Frame rate                               : 23.976 (24000/1001) FPS
Color space                              : YUV
Chroma subsampling                       : 4:2:0
Bit depth                                : 8 bits
Scan type                                : Progressive
Bits/(Pixel*Frame)                       : 0.090
Stream size                              : 4.78 GiB (96%)
Writing library                          : x264 core 157 r2935 545de2f
Encoding settings                        : cabac=1 / ref=1 / deblock=1:0:0 / analyse=0x3:0x113 / me=hex / subme=2 / psy=1 / psy_rd=1.00:0.00 / mixed_ref=0 / me_range=16 / chroma_me=1 / trellis=0 / 8x8dct=1 / cqm=0 / deadzone=21,11 / fast_pskip=1 / chroma_qp_offset=0 / threads=34 / lookahead_threads=8 / sliced_threads=0 / nr=0 / decimate=1 / interlaced=0 / bluray_compat=0 / constrained_intra=0 / bframes=3 / b_pyramid=2 / b_adapt=1 / b_bias=0 / direct=1 / weightb=1 / open_gop=0 / weightp=1 / keyint=240 / keyint_min=23 / scenecut=40 / intra_refresh=0 / rc_lookahead=10 / rc=abr / mbtree=1 / bitrate=4496 / ratetol=1.0 / qcomp=0.60 / qpmin=0 / qpmax=69 / qpstep=4 / ip_ratio=1.40 / aq=1:1.00
Encoded date                             : UTC 2019-04-07 17:55:46
Tagged date                              : UTC 2019-04-07 17:57:43
Codec configuration box                  : avcC

Audio
ID                                       : 2
Format                                   : AAC LC
Format/Info                              : Advanced Audio Codec Low Complexity
Codec ID                                 : mp4a-40-2
Duration                                 : 2 h 32 min
Duration_LastFrame                       : -9 ms
Bit rate mode                            : Variable
Bit rate                                 : 196 kb/s
Maximum bit rate                         : 203 kb/s
Channel(s)                               : 2 channels
Channel layout                           : L R
Sampling rate                            : 48.0 kHz
Frame rate                               : 46.875 FPS (1024 SPF)
Compression mode                         : Lossy
Stream size                              : 213 MiB (4%)
Language                                 : Tamil
Default                                  : Yes
Alternate group                          : 1
Tagged date                              : UTC 2019-04-07 17:57:43




2.0 (2018) Tamil - 1080p - HDTV - AVC - UNTOUCHED - AAC-BWT2.0 (2018) Tamil - 1080p - HDTV - AVC - UNTOUCHED - AAC-BWT2.0 (2018) Tamil - 1080p - HDTV - AVC - UNTOUCHED - AAC-BWT2.0 (2018) Tamil - 1080p - HDTV - AVC - UNTOUCHED - AAC-BWT2.0 (2018) Tamil - 1080p - HDTV - AVC - UNTOUCHED - AAC-BWT2.0 (2018) Tamil - 1080p - HDTV - AVC - UNTOUCHED - AAC-BWT2.0 (2018) Tamil - 1080p - HDTV - AVC - UNTOUCHED - AAC-BWT2.0 (2018) Tamil - 1080p - HDTV - AVC - UNTOUCHED - AAC-BWT

SINGLE DIRECT FAST LINKS

https://www.heroupload.com/9218e22e4a0d3981/2.0.2018.Tamil.HDTV.1080p.UNTOUCHED.AAC-BWT.mp4


1GB LINKS


https://www.heroupload.com/7e2658e14170932b/2.0.2018.Tamil.HDTV.1080p.UNTOUCHED.AAC-BWT.part1.rar
https://www.heroupload.com/d30992bacdec311b/2.0.2018.Tamil.HDTV.1080p.UNTOUCHED.AAC-BWT.part2.rar
https://www.heroupload.com/a916972f6f17cefe/2.0.2018.Tamil.HDTV.1080p.UNTOUCHED.AAC-BWT.part3.rar
https://www.heroupload.com/031e844dfe3f83f1/2.0.2018.Tamil.HDTV.1080p.UNTOUCHED.AAC-BWT.part4.rar
https://www.heroupload.com/2a66546b26b0ab25/2.0.2018.Tamil.HDTV.1080p.UNTOUCHED.AAC-BWT.part5.rar




Buy Premium From My Links & Support Me

Теги: 2

Dear visitor, you are browsing our website as Guest.
We strongly recommend you to register and login to view hidden contents.

Comments:

Add Comments