Set as default Homepage|Bookmark
 
 
» » Keikraan Meikkiran (2017) Tamil - 1080p - WEB-HD - AVC - AAC-MTR
Advertise

Keikraan Meikkiran (2017) Tamil - 1080p - WEB-HD - AVC - AAC-MTR

Author: wroser on 31-10-2017, 01:16
Keikraan Meikkiran (2017) Tamil - 1080p - WEB-HD - AVC - AAC-MTR





General
Format                      : MPEG-4
Format profile              : Base Media
Codec ID                    : isom (isom)
File size                   : 2.68 GiB
Duration                    : 2 h 19 min
Overall bit rate mode       : Variable
Overall bit rate            : 2 745 kb/s
Encoded date                : UTC 2017-10-30 10:56:40
Tagged date                 : UTC 2017-10-30 10:56:40
Writing application         : MkvToMp4 [www.mkvtomp4.ru] version 0.224 (x64)

Video
ID                          : 1
Format                      : AVC
Format/Info                 : Advanced Video Codec
Format profile              : [email protected]
Format settings, CABAC      : Yes
Format settings, RefFrames  : 4 frames
Format settings, GOP        : M=4, N=50
Codec ID                    : avc1
Codec ID/Info               : Advanced Video Coding
Duration                    : 2 h 19 min
Bit rate                    : 2 613 kb/s
Nominal bit rate            : 3 500 kb/s
Maximum bit rate            : 4 596 kb/s
Width                       : 1 920 pixels
Height                      : 1 080 pixels
Display aspect ratio        : 16:9
Frame rate mode             : Constant
Frame rate                  : 25.000 FPS
Color space                 : YUV
Chroma subsampling          : 4:2:0
Bit depth                   : 8 bits
Scan type                   : Progressive
Bits/(Pixel*Frame)          : 0.050
Stream size                 : 2.55 GiB (95%)
Writing library             : x264 core 148 r2694 3b70645
Encoding settings           : cabac=1 / ref=3 / deblock=1:0:0 / analyse=0x3:0x113 / me=hex / subme=7 / psy=1 / psy_rd=1.00:0.00 / mixed_ref=1 / me_range=16 / chroma_me=1 / trellis=1 / 8x8dct=1 / cqm=0 / deadzone=21,11 / fast_pskip=1 / chroma_qp_offset=-2 / threads=34 / lookahead_threads=5 / sliced_threads=0 / nr=0 / decimate=1 / interlaced=0 / bluray_compat=0 / constrained_intra=0 / bframes=3 / b_pyramid=2 / b_adapt=1 / b_bias=0 / direct=1 / weightb=1 / open_gop=0 / weightp=2 / keyint=50 / keyint_min=26 / scenecut=0 / intra_refresh=0 / rc_lookahead=40 / rc=cbr / mbtree=1 / bitrate=3500 / ratetol=1.0 / qcomp=0.60 / qpmin=0 / qpmax=69 / qpstep=4 / vbv_maxrate=3500 / vbv_bufsize=3500 / nal_hrd=none / filler=0 / ip_ratio=1.40 / aq=1:1.00
Language                    : English
Tagged date                 : UTC 2017-10-30 10:56:47

Audio
ID                          : 2
Format                      : AAC
Format/Info                 : Advanced Audio Codec
Format profile              : LC
Codec ID                    : 40
Duration                    : 2 h 19 min
Bit rate mode               : Variable
Bit rate                    : 128 kb/s
Maximum bit rate            : 138 kb/s
Channel(s)                  : 2 channels
Channel positions           : Front: L R
Sampling rate               : 48.0 kHz
Frame rate                  : 46.875 FPS (1024 SPF)
Compression mode            : Lossy
Stream size                 : 127 MiB (5%)
Language                    : English
Default                     : Yes
Alternate group             : 1
Encoded date                : UTC 2017-10-30 10:56:45
Tagged date                 : UTC 2017-10-30 10:56:47



Keikraan Meikkiran (2017) Tamil - 1080p - WEB-HD - AVC - AAC-MTR


SINGLE DIRECT FAST LINKS
http://www.heroupload.com/79f5f752003a6aaf/Keikraan.Meikkiran.2017.Tamil.1080p.HD.AVC.MP4-MTR.mp4


http://filefloater.com/6pk/Keikraan.Meikkiran.2017.Tamil.1080p.HD.AVC.MP4-MTR.mp4

700MB LINKS

http://www.heroupload.com/b6a6229a6d5e53aa/Keikraan.Meikkiran.2017.Tamil.1080p.HD.AVC.MP4-MTR.part1.rar
http://www.heroupload.com/ecba25a31c1484d3/Keikraan.Meikkiran.2017.Tamil.1080p.HD.AVC.MP4-MTR.part2.rar
http://www.heroupload.com/63f1fcbf6df5a60a/Keikraan.Meikkiran.2017.Tamil.1080p.HD.AVC.MP4-MTR.part3.rar
http://www.heroupload.com/734fa2c4cd79d53d/Keikraan.Meikkiran.2017.Tamil.1080p.HD.AVC.MP4-MTR.part4.rar



http://filefloater.com/6pl/Keikraan.Meikkiran.2017.Tamil.1080p.HD.AVC.MP4-MTR.part1.rar
http://filefloater.com/6pm/Keikraan.Meikkiran.2017.Tamil.1080p.HD.AVC.MP4-MTR.part2.rar
http://filefloater.com/6pn/Keikraan.Meikkiran.2017.Tamil.1080p.HD.AVC.MP4-MTR.part3.rar
http://filefloater.com/6po/Keikraan.Meikkiran.2017.Tamil.1080p.HD.AVC.MP4-MTR.part4.rar



Dear visitor, you are browsing our website as Guest.
We strongly recommend you to register and login to view hidden contents.

Comments:

Add Comments