Set as default Homepage|Bookmark
 
 
» » Sarkar (2018) Tamil - 720p - HDRip - x264 - DD5.1 - ESubs-MTR
Advertise

Sarkar (2018) Tamil - 720p - HDRip - x264 - DD5.1 - ESubs-MTR

Author: wroser on 31-12-2018, 21:25
Sarkar (2018) Tamil - 720p - HDRip - x264 - DD5.1 - ESubs-MTR





Format                                   : Matroska
Format version                           : Version 4
File size                                : 2.09 GiB
Duration                                 : 2 h 37 min
Overall bit rate                         : 1 900 kb/s
Movie name                               : www.TamilRockers.to
Encoded date                             : UTC 2019-01-01 02:07:52
Writing application                      : mkvmerge v29.0.0 ('Like It Or Not') 32-bit
Writing library                          : libebml v1.3.6 + libmatroska v1.4.9

Video
ID                                       : 1
Format                                   : AVC
Format/Info                              : Advanced Video Codec
Format profile                           : [email protected]
Format settings                          : CABAC / 4 Ref Frames
Format settings, CABAC                   : Yes
Format settings, RefFrames               : 4 frames
Codec ID                                 : V_MPEG4/ISO/AVC
Duration                                 : 2 h 37 min
Bit rate                                 : 1 744 kb/s
Width                                    : 1 280 pixels
Height                                   : 554 pixels
Display aspect ratio                     : 2.35:1
Frame rate mode                          : Constant
Frame rate                               : 24.000 FPS
Color space                              : YUV
Chroma subsampling                       : 4:2:0
Bit depth                                : 8 bits
Scan type                                : Progressive
Bits/(Pixel*Frame)                       : 0.102
Stream size                              : 1.91 GiB (91%)
Writing library                          : x264 core 152 r2851 ba24899
Encoding settings                        : cabac=1 / ref=2 / deblock=1:0:0 / analyse=0x3:0x113 / me=hex / subme=4 / psy=1 / psy_rd=1.00:0.00 / mixed_ref=0 / me_range=16 / chroma_me=1 / trellis=1 / 8x8dct=1 / cqm=0 / deadzone=21,11 / fast_pskip=1 / chroma_qp_offset=0 / threads=17 / lookahead_threads=4 / sliced_threads=0 / nr=0 / decimate=1 / interlaced=0 / bluray_compat=0 / constrained_intra=0 / bframes=3 / b_pyramid=2 / b_adapt=1 / b_bias=0 / direct=1 / weightb=1 / open_gop=0 / weightp=1 / keyint=240 / keyint_min=24 / scenecut=40 / intra_refresh=0 / rc_lookahead=20 / rc=abr / mbtree=1 / bitrate=1744 / ratetol=1.0 / qcomp=0.60 / qpmin=0 / qpmax=69 / qpstep=4 / vbv_maxrate=300000 / vbv_bufsize=300000 / nal_hrd=none / filler=0 / ip_ratio=1.40 / aq=1:1.00
Language                                 : English
Default                                  : Yes
Forced                                   : No

Audio
ID                                       : 2
Format                                   : AC-3
Format/Info                              : Audio Coding 3
Commercial name                          : Dolby Digital
Codec ID                                 : A_AC3
Duration                                 : 2 h 37 min
Bit rate mode                            : Constant
Bit rate                                 : 160 kb/s
Channel(s)                               : 6 channels
Channel layout                           : L R C LFE Ls Rs
Sampling rate                            : 44.1 kHz
Frame rate                               : 28.711 FPS (1536 SPF)
Bit depth                                : 16 bits
Compression mode                         : Lossy
Stream size                              : 180 MiB (8%)
Language                                 : English
Service kind                             : Complete Main
Default                                  : Yes
Forced                                   : No



Sarkar (2018) Tamil - 720p - HDRip - x264 - DD5.1 - ESubs-MTRSarkar (2018) Tamil - 720p - HDRip - x264 - DD5.1 - ESubs-MTRSarkar (2018) Tamil - 720p - HDRip - x264 - DD5.1 - ESubs-MTRSarkar (2018) Tamil - 720p - HDRip - x264 - DD5.1 - ESubs-MTRSarkar (2018) Tamil - 720p - HDRip - x264 - DD5.1 - ESubs-MTR

SINGLE DIRECT FAST LINKS


https://www.heroupload.us/feb64357e698d08c/Sarkar.2018.Tamil.720p.HDRip.x264.DD5.1.ESubs-MTR.mkv



Buy Premium From My Links & Support Me

Теги: Sarkar

Dear visitor, you are browsing our website as Guest.
We strongly recommend you to register and login to view hidden contents.

Comments:

Add Comments