Set as default Homepage|Bookmark
 
 
» » Sarkar (2018) Tamil - 480p - WEB-HD - AVC - AAC - UNTOUCHED - Esubs-MTR
Advertise

Sarkar (2018) Tamil - 480p - WEB-HD - AVC - AAC - UNTOUCHED - Esubs-MTR

Author: wroser on 31-12-2018, 21:21
Sarkar (2018) Tamil - 480p - WEB-HD - AVC - AAC - UNTOUCHED - Esubs-MTR





Format                                   : MPEG-4
Format profile                           : Base Media
Codec ID                                 : isom (isom/iso2/avc1/mp41)
File size                                : 1.51 GiB
Duration                                 : 2 h 37 min
Overall bit rate                         : 1 367 kb/s
Writing application                      : Lavf58.25.100

Video
ID                                       : 1
Format                                   : AVC
Format/Info                              : Advanced Video Codec
Format profile                           : [email protected]
Format settings                          : CABAC / 8 Ref Frames
Format settings, CABAC                   : Yes
Format settings, RefFrames               : 8 frames
Codec ID                                 : avc1
Codec ID/Info                            : Advanced Video Coding
Duration                                 : 2 h 37 min
Bit rate                                 : 1 298 kb/s
Width                                    : 720 pixels
Height                                   : 480 pixels
Display aspect ratio                     : 1.85:1
Original display aspect ratio            : 1.85:1
Frame rate mode                          : Constant
Frame rate                               : 24.000 FPS
Color space                              : YUV
Chroma subsampling                       : 4:2:0
Bit depth                                : 8 bits
Scan type                                : Progressive
Bits/(Pixel*Frame)                       : 0.156
Stream size                              : 1.43 GiB (95%)
Codec configuration box                  : avcC

Audio
ID                                       : 2
Format                                   : AAC LC
Format/Info                              : Advanced Audio Codec Low Complexity
Codec ID                                 : mp4a-40-2
Duration                                 : 2 h 37 min
Bit rate mode                            : Constant
Bit rate                                 : 64.0 kb/s
Channel(s)                               : 2 channels
Channel layout                           : L R
Sampling rate                            : 48.0 kHz
Frame rate                               : 46.875 FPS (1024 SPF)
Compression mode                         : Lossy
Stream size                              : 72.1 MiB (5%)
Default                                  : Yes
Alternate group                          : 1



Sarkar (2018) Tamil - 480p - WEB-HD - AVC - AAC - UNTOUCHED - Esubs-MTR
Sarkar (2018) Tamil - 480p - WEB-HD - AVC - AAC - UNTOUCHED - Esubs-MTR
Sarkar (2018) Tamil - 480p - WEB-HD - AVC - AAC - UNTOUCHED - Esubs-MTR
Sarkar (2018) Tamil - 480p - WEB-HD - AVC - AAC - UNTOUCHED - Esubs-MTR
Sarkar (2018) Tamil - 480p - WEB-HD - AVC - AAC - UNTOUCHED - Esubs-MTR
Sarkar (2018) Tamil - 480p - WEB-HD - AVC - AAC - UNTOUCHED - Esubs-MTR
Sarkar (2018) Tamil - 480p - WEB-HD - AVC - AAC - UNTOUCHED - Esubs-MTR
Sarkar (2018) Tamil - 480p - WEB-HD - AVC - AAC - UNTOUCHED - Esubs-MTR
Sarkar (2018) Tamil - 480p - WEB-HD - AVC - AAC - UNTOUCHED - Esubs-MTR
Sarkar (2018) Tamil - 480p - WEB-HD - AVC - AAC - UNTOUCHED - Esubs-MTR
Sarkar (2018) Tamil - 480p - WEB-HD - AVC - AAC - UNTOUCHED - Esubs-MTR
Sarkar (2018) Tamil - 480p - WEB-HD - AVC - AAC - UNTOUCHED - Esubs-MTR

SINGLE DIRECT FAST LINKS


https://www.heroupload.us/2331882339ac6b94/SARKAR.2018.Tamil.480p.HD.AVC.UNTOUCHED.x264.ESUB-MTR.mp4


Buy Premium From My Links & Support Me

Теги: Sarkar

Dear visitor, you are browsing our website as Guest.
We strongly recommend you to register and login to view hidden contents.

Comments:

Add Comments
Reply
  • Group: Members
  • ICQ:
  • Registration: 2.01.2019
  • Status: Currently Offline
  • 1 Comment
  • 0 Article
^
looks like a very good movie. these kinds of movies give people awareness to the political scenario of a country and help them Creating a Paper Assignment to change their mind.