Set as default Homepage|Bookmark
 
 
» » Sandakozhi 2 (2018) Tamil - 1080p - HDRip - x264 - MP3 - ESubs-MTR
Advertise

Sandakozhi 2 (2018) Tamil - 1080p - HDRip - x264 - MP3 - ESubs-MTR

Author: wroser on 31-12-2018, 21:15
Sandakozhi 2 (2018) Tamil - 1080p - HDRip - x264 - MP3 - ESubs-MTR





Format                                   : Matroska
Format version                           : Version 4
File size                                : 2.49 GiB
Duration                                 : 2 h 33 min
Overall bit rate                         : 2 319 kb/s
Encoded date                             : UTC 2018-12-31T13:44:01Z
Writing application                      : HandBrake 1.1.2 2018090500
Writing library                          : Lavf57.7.2

Video
ID                                       : 1
Format                                   : AVC
Format/Info                              : Advanced Video Codec
Format profile                           : [email protected]
Format settings                          : CABAC / 4 Ref Frames
Format settings, CABAC                   : Yes
Format settings, RefFrames               : 4 frames
Codec ID                                 : V_MPEG4/ISO/AVC
Duration                                 : 2 h 33 min
Bit rate                                 : 2 206 kb/s
Width                                    : 1 980 pixels
Height                                   : 816 pixels
Display aspect ratio                     : 2.40:1
Frame rate mode                          : Constant
Frame rate                               : 24.000 FPS
Color space                              : YUV
Chroma subsampling                       : 4:2:0
Bit depth                                : 8 bits
Scan type                                : Progressive
Bits/(Pixel*Frame)                       : 0.057
Stream size                              : 2.32 GiB (93%)
Writing library                          : x264 core 155 r2901 7d0ff22
Encoding settings                        : cabac=1 / ref=1 / deblock=1:0:0 / analyse=0x1:0x111 / me=hex / subme=2 / psy=1 / psy_rd=1.00:0.00 / mixed_ref=0 / me_range=16 / chroma_me=1 / trellis=0 / 8x8dct=0 / cqm=0 / deadzone=21,11 / fast_pskip=1 / chroma_qp_offset=0 / threads=12 / lookahead_threads=4 / sliced_threads=0 / nr=0 / decimate=1 / interlaced=0 / bluray_compat=0 / constrained_intra=0 / bframes=3 / b_pyramid=2 / b_adapt=1 / b_bias=0 / direct=1 / weightb=1 / open_gop=0 / weightp=1 / keyint=240 / keyint_min=24 / scenecut=40 / intra_refresh=0 / rc_lookahead=10 / rc=abr / mbtree=1 / bitrate=2206 / ratetol=1.0 / qcomp=0.60 / qpmin=0 / qpmax=69 / qpstep=4 / vbv_maxrate=20000 / vbv_bufsize=25000 / nal_hrd=none / filler=0 / ip_ratio=1.40 / aq=1:1.00
Default                                  : Yes
Forced                                   : No
Color range                              : Limited
Color primaries                          : BT.601 NTSC
Transfer characteristics                 : BT.709
Matrix coefficients                      : BT.601

Audio
ID                                       : 2
Format                                   : MPEG Audio
Format version                           : Version 1
Format profile                           : Layer 3
Format settings                          : Joint stereo / MS Stereo
Codec ID                                 : A_MPEG/L3
Codec ID/Hint                            : MP3
Duration                                 : 2 h 33 min
Bit rate mode                            : Constant
Bit rate                                 : 112 kb/s
Channel(s)                               : 2 channels
Sampling rate                            : 48.0 kHz
Compression mode                         : Lossy
Delay relative to video                  : -83 ms
Stream size                              : 123 MiB (5%)
Title                                    : Stereo
Writing library                          : LAME3.100ªªªAù¹
Default                                  : Yes
Forced                                   : No


Sandakozhi 2 (2018) Tamil - 1080p - HDRip - x264 - MP3 - ESubs-MTRSandakozhi 2 (2018) Tamil - 1080p - HDRip - x264 - MP3 - ESubs-MTRSandakozhi 2 (2018) Tamil - 1080p - HDRip - x264 - MP3 - ESubs-MTRSandakozhi 2 (2018) Tamil - 1080p - HDRip - x264 - MP3 - ESubs-MTRSandakozhi 2 (2018) Tamil - 1080p - HDRip - x264 - MP3 - ESubs-MTR


SINGLE DIRECT FAST LINKS

https://www.heroupload.us/db408e376639fd91/Sandakozhi.2.2018.Tamil.1080p.HDRip.x264.ESubs-MTR.mkv


700MB LINKS


https://www.heroupload.us/41709821981a4634/Sandakozhi.2.2018.Tamil.1080p.HDRip.x264.ESubs-MTR.part1.rar
https://www.heroupload.us/2aa560c74378574f/Sandakozhi.2.2018.Tamil.1080p.HDRip.x264.ESubs-MTR.part2.rar
https://www.heroupload.us/dc7c27a4eb630279/Sandakozhi.2.2018.Tamil.1080p.HDRip.x264.ESubs-MTR.part3.rar
https://www.heroupload.us/45cc848acd4d30dd/Sandakozhi.2.2018.Tamil.1080p.HDRip.x264.ESubs-MTR.part4.rar


Buy Premium From My Links & Support Me

Теги: Sandakozhi

Dear visitor, you are browsing our website as Guest.
We strongly recommend you to register and login to view hidden contents.

Comments:

Add Comments