Set as default Homepage|Bookmark
 
 
» » Sandakozhi 2 (2018) Tamil - 480p - WEB-HD - AVC - AAC - UNTOUCHED - Esubs-MTR
Advertise

Sandakozhi 2 (2018) Tamil - 480p - WEB-HD - AVC - AAC - UNTOUCHED - Esubs-MTR

Author: wroser on 31-12-2018, 21:02
Sandakozhi 2 (2018) Tamil - 480p - WEB-HD - AVC - AAC - UNTOUCHED - Esubs-MTR





Format                                   : MPEG-4
Format profile                           : Base Media
Codec ID                                 : isom (isom)
File size                                : 1.47 GiB
Duration                                 : 2 h 33 min
Overall bit rate mode                    : Variable
Overall bit rate                         : 1 368 kb/s
Encoded date                             : UTC 2018-12-31 11:23:00
Tagged date                              : UTC 2018-12-31 11:23:00

Video
ID                                       : 1
Format                                   : AVC
Format/Info                              : Advanced Video Codec
Format profile                           : [email protected]
Format settings                          : CABAC / 8 Ref Frames
Format settings, CABAC                   : Yes
Format settings, RefFrames               : 8 frames
Codec ID                                 : avc1
Codec ID/Info                            : Advanced Video Coding
Duration                                 : 2 h 33 min
Bit rate                                 : 1 300 kb/s
Maximum bit rate                         : 5 648 kb/s
Width                                    : 720 pixels
Height                                   : 480 pixels
Display aspect ratio                     : 1.85:1
Frame rate mode                          : Constant
Frame rate                               : 24.000 FPS
Color space                              : YUV
Chroma subsampling                       : 4:2:0
Bit depth                                : 8 bits
Scan type                                : Progressive
Bits/(Pixel*Frame)                       : 0.157
Stream size                              : 1.39 GiB (95%)
Writing library                          : x264 core 146 r2538 121396c
Encoding settings                        : cabac=1 / ref=8 / deblock=1:-1:-1 / analyse=0x1:0x131 / me=umh / subme=9 / psy=1 / psy_rd=1.00:0.15 / mixed_ref=1 / me_range=16 / chroma_me=1 / trellis=2 / 8x8dct=0 / cqm=0 / deadzone=21,11 / fast_pskip=1 / chroma_qp_offset=-3 / threads=24 / lookahead_threads=2 / sliced_threads=0 / nr=0 / decimate=1 / interlaced=0 / bluray_compat=0 / constrained_intra=0 / bframes=3 / b_pyramid=2 / b_adapt=2 / b_bias=0 / direct=3 / weightb=1 / open_gop=0 / weightp=2 / keyint=240 / keyint_min=24 / scenecut=40 / intra_refresh=0 / rc_lookahead=60 / rc=2pass / mbtree=1 / bitrate=1300 / ratetol=1.0 / qcomp=0.60 / qpmin=0 / qpmax=69 / qpstep=4 / cplxblur=20.0 / qblur=0.5 / vbv_maxrate=4000 / vbv_bufsize=4000 / nal_hrd=none / filler=0 / ip_ratio=1.40 / aq=1:1.00
Encoded date                             : UTC 2018-12-31 11:15:30
Tagged date                              : UTC 2018-12-31 11:23:13
Codec configuration box                  : avcC

Audio
ID                                       : 2
Format                                   : AAC LC
Format/Info                              : Advanced Audio Codec Low Complexity
Codec ID                                 : mp4a-40-2
Duration                                 : 2 h 33 min
Bit rate mode                            : Variable
Bit rate                                 : 64.0 kb/s
Maximum bit rate                         : 86.7 kb/s
Channel(s)                               : 2 channels
Channel layout                           : L R
Sampling rate                            : 48.0 kHz
Frame rate                               : 46.875 FPS (1024 SPF)
Compression mode                         : Lossy
Stream size                              : 70.3 MiB (5%)
Encoded date                             : UTC 2018-12-31 11:17:16
Tagged date                              : UTC 2018-12-31 11:23:13


Sandakozhi 2 (2018) Tamil - 480p - WEB-HD - AVC - AAC - UNTOUCHED - Esubs-MTR
Sandakozhi 2 (2018) Tamil - 480p - WEB-HD - AVC - AAC - UNTOUCHED - Esubs-MTR
Sandakozhi 2 (2018) Tamil - 480p - WEB-HD - AVC - AAC - UNTOUCHED - Esubs-MTR
Sandakozhi 2 (2018) Tamil - 480p - WEB-HD - AVC - AAC - UNTOUCHED - Esubs-MTR
Sandakozhi 2 (2018) Tamil - 480p - WEB-HD - AVC - AAC - UNTOUCHED - Esubs-MTR
Sandakozhi 2 (2018) Tamil - 480p - WEB-HD - AVC - AAC - UNTOUCHED - Esubs-MTR
Sandakozhi 2 (2018) Tamil - 480p - WEB-HD - AVC - AAC - UNTOUCHED - Esubs-MTR
Sandakozhi 2 (2018) Tamil - 480p - WEB-HD - AVC - AAC - UNTOUCHED - Esubs-MTR
Sandakozhi 2 (2018) Tamil - 480p - WEB-HD - AVC - AAC - UNTOUCHED - Esubs-MTR
Sandakozhi 2 (2018) Tamil - 480p - WEB-HD - AVC - AAC - UNTOUCHED - Esubs-MTR
Sandakozhi 2 (2018) Tamil - 480p - WEB-HD - AVC - AAC - UNTOUCHED - Esubs-MTR
Sandakozhi 2 (2018) Tamil - 480p - WEB-HD - AVC - AAC - UNTOUCHED - Esubs-MTR
Sandakozhi 2 (2018) Tamil - 480p - WEB-HD - AVC - AAC - UNTOUCHED - Esubs-MTR
Sandakozhi 2 (2018) Tamil - 480p - WEB-HD - AVC - AAC - UNTOUCHED - Esubs-MTR

SINGLE DIRECT FAST LINKS


https://www.heroupload.us/01f6acf18232ceb5/Sandakozhi.2.2018.Tamil.480p.HD.AVC.UNTOUCHED-MTR.mp4





Buy Premium From My Links & Support Me

Теги: Sandakozhi

Dear visitor, you are browsing our website as Guest.
We strongly recommend you to register and login to view hidden contents.

Comments:

Add Comments