Set as default Homepage|Bookmark
 
 
» » Brindavanam (2017) Tamil - 4.90GB - 720p - WEB-HD - UNTOUCHED - AVC - AAC-TMV
Advertise

Brindavanam (2017) Tamil - 4.90GB - 720p - WEB-HD - UNTOUCHED - AVC - AAC-TMV

Author: wroser on 26-10-2017, 14:31
Brindavanam (2017) Tamil - 4.90GB - 720p - WEB-HD - UNTOUCHED - AVC - AAC-TMV





General
Format                      : Matroska
Format version              : Version 4 / Version 2
File size                   : 4.90 GiB
Duration                    : 2 h 2 min
Overall bit rate            : 5 708 kb/s
Movie name                  : TamilMV
Encoded date                : UTC 2017-10-25 08:20:17
Writing application         : mkvmerge v8.2.0 ('World of Adventure') 64bit
Writing library             : libebml v1.3.1 + libmatroska v1.4.2

Video
ID                          : 1
Format                      : AVC
Format/Info                 : Advanced Video Codec
Format profile              : [email protected]
Format settings, CABAC      : Yes
Format settings, RefFrames  : 3 frames
Codec ID                    : V_MPEG4/ISO/AVC
Duration                    : 2 h 2 min
Bit rate                    : 5 494 kb/s
Width                       : 1 280 pixels
Height                      : 720 pixels
Display aspect ratio        : 16:9
Frame rate mode             : Constant
Frame rate                  : 25.000 FPS
Color space                 : YUV
Chroma subsampling          : 4:2:0
Bit depth                   : 8 bits
Scan type                   : Progressive
Bits/(Pixel*Frame)          : 0.238
Stream size                 : 4.71 GiB (96%)
Writing library             : x264 core 142
Encoding settings           : cabac=1 / ref=3 / deblock=1:0:0 / analyse=0x1:0x111 / me=hex / subme=7 / psy=1 / psy_rd=1.00:0.00 / mixed_ref=1 / me_range=16 / chroma_me=1 / trellis=1 / 8x8dct=0 / cqm=0 / deadzone=21,11 / fast_pskip=1 / chroma_qp_offset=-2 / threads=12 / lookahead_threads=2 / sliced_threads=0 / nr=0 / decimate=1 / interlaced=0 / bluray_compat=0 / constrained_intra=0 / bframes=3 / b_pyramid=1 / b_adapt=1 / b_bias=0 / direct=1 / weightb=1 / open_gop=0 / weightp=2 / keyint=250 / keyint_min=25 / scenecut=40 / intra_refresh=0 / rc_lookahead=40 / rc=crf / mbtree=1 / crf=16.0 / qcomp=0.60 / qpmin=10 / qpmax=51 / qpstep=4 / ip_ratio=1.41 / aq=1:1.00
Language                    : Tamil
Default                     : Yes
Forced                      : No

Audio
ID                          : 2
Format                      : AAC
Format/Info                 : Advanced Audio Codec
Format profile              : LC
Codec ID                    : A_AAC
Duration                    : 2 h 2 min
Bit rate                    : 212 kb/s
Channel(s)                  : 2 channels
Channel positions           : Front: L R
Sampling rate               : 48.0 kHz
Frame rate                  : 46.875 FPS (1024 SPF)
Compression mode            : Lossy
Delay relative to video     : -80 ms
Stream size                 : 187 MiB (4%)
Language                    : Tamil
Default                     : Yes
Forced                      : No



Brindavanam (2017) Tamil - 4.90GB - 720p - WEB-HD - UNTOUCHED - AVC - AAC-TMVBrindavanam (2017) Tamil - 4.90GB - 720p - WEB-HD - UNTOUCHED - AVC - AAC-TMVBrindavanam (2017) Tamil - 4.90GB - 720p - WEB-HD - UNTOUCHED - AVC - AAC-TMVBrindavanam (2017) Tamil - 4.90GB - 720p - WEB-HD - UNTOUCHED - AVC - AAC-TMVBrindavanam (2017) Tamil - 4.90GB - 720p - WEB-HD - UNTOUCHED - AVC - AAC-TMVBrindavanam (2017) Tamil - 4.90GB - 720p - WEB-HD - UNTOUCHED - AVC - AAC-TMV


SINGLE DIRECT FAST LINKS

http://www.heroupload.com/04c2d8bba606ae55/Brindavanam.2017.Tamil.WEB-HD.720p.UNTOUCHED.AVC.AAC-TMV.mkv


http://filefloater.com/6kb/Brindavanam.2017.Tamil.WEB-HD.720p.UNTOUCHED.AVC.AAC-TMV.mkv


1GB LINKS

http://www.heroupload.com/ac6e68326c9b0aab/Brindavanam.2017.Tamil.WEB-HD.720p.UNTOUCHED.AVC.AAC-TMV.part1.rar
http://www.heroupload.com/e345e16b02cb4d55/Brindavanam.2017.Tamil.WEB-HD.720p.UNTOUCHED.AVC.AAC-TMV.part2.rar
http://www.heroupload.com/356e4cd273ecc3d4/Brindavanam.2017.Tamil.WEB-HD.720p.UNTOUCHED.AVC.AAC-TMV.part3.rar
http://www.heroupload.com/ed2358be9af61adf/Brindavanam.2017.Tamil.WEB-HD.720p.UNTOUCHED.AVC.AAC-TMV.part4.rar
http://www.heroupload.com/2b4e416fee7c715e/Brindavanam.2017.Tamil.WEB-HD.720p.UNTOUCHED.AVC.AAC-TMV.part5.rar



http://filefloater.com/6kc/Brindavanam.2017.Tamil.WEB-HD.720p.UNTOUCHED.AVC.AAC-TMV.part1.rar
http://filefloater.com/6kd/Brindavanam.2017.Tamil.WEB-HD.720p.UNTOUCHED.AVC.AAC-TMV.part2.rar
http://filefloater.com/6ke/Brindavanam.2017.Tamil.WEB-HD.720p.UNTOUCHED.AVC.AAC-TMV.part3.rar
http://filefloater.com/6kf/Brindavanam.2017.Tamil.WEB-HD.720p.UNTOUCHED.AVC.AAC-TMV.part4.rar
http://filefloater.com/6kg/Brindavanam.2017.Tamil.WEB-HD.720p.UNTOUCHED.AVC.AAC-TMV.part5.rar

Dear visitor, you are browsing our website as Guest.
We strongly recommend you to register and login to view hidden contents.

Comments:

Add Comments