Set as default Homepage|Bookmark
 
 
» » Vivegam (2017) Tamil - 480p - WEB-HD - AVC - AAC - HC-ESub-WR Exclusive
Advertise

Vivegam (2017) Tamil - 480p - WEB-HD - AVC - AAC - HC-ESub-WR Exclusive

Author: wroser on 30-09-2017, 06:44
Vivegam (2017) Tamil - 480p - WEB-HD - AVC - AAC - HC-ESub-WR Exclusive






General
Format                      : MPEG-4
Format profile              : Base Media
Codec ID                    : isom (isom)
File size                   : 1.42 GiB
Duration                    : 2 h 27 min
Overall bit rate mode       : Variable
Overall bit rate            : 1 372 kb/s
ContentType                 : Movie
Encoded date                : UTC 2017-09-30 06:09:40
Tagged date                 : UTC 2017-09-30 06:09:49
Writing application         : MkvToMp4 [www.mkvtomp4.ru] version: 0.224 (x64)

Video
ID                          : 1
Format                      : AVC
Format/Info                 : Advanced Video Codec
Format profile              : [email protected]
Format settings, CABAC      : Yes
Format settings, RefFrames  : 8 frames
Codec ID                    : avc1
Codec ID/Info               : Advanced Video Coding
Duration                    : 2 h 27 min
Bit rate                    : 1 300 kb/s
Maximum bit rate            : 6 400 kb/s
Width                       : 720 pixels
Height                      : 480 pixels
Display aspect ratio        : 1.85:1
Original display aspect rat : 1.85:1
Frame rate mode             : Constant
Frame rate                  : 24.000 FPS
Color space                 : YUV
Chroma subsampling          : 4:2:0
Bit depth                   : 8 bits
Scan type                   : Progressive
Bits/(Pixel*Frame)          : 0.157
Stream size                 : 1.34 GiB (95%)
Language                    : English
Tagged date                 : UTC 2017-09-30 06:09:44

Audio
ID                          : 2
Format                      : AAC
Format/Info                 : Advanced Audio Codec
Format profile              : LC
Codec ID                    : 67
Duration                    : 2 h 27 min
Bit rate mode               : Variable
Bit rate                    : 63.8 kb/s
Maximum bit rate            : 75.8 kb/s
Channel(s)                  : 2 channels
Channel positions           : Front: L R
Sampling rate               : 48.0 kHz
Frame rate                  : 46.875 FPS (1024 SPF)
Compression mode            : Lossy
Stream size                 : 67.6 MiB (5%)
Language                    : English
Default                     : Yes
Alternate group             : 1
Encoded date                : UTC 2017-09-30 06:09:42
Tagged date                 : UTC 2017-09-30 06:09:44



Vivegam (2017) Tamil - 480p - WEB-HD - AVC - AAC - HC-ESub-WR ExclusiveVivegam (2017) Tamil - 480p - WEB-HD - AVC - AAC - HC-ESub-WR ExclusiveVivegam (2017) Tamil - 480p - WEB-HD - AVC - AAC - HC-ESub-WR ExclusiveVivegam (2017) Tamil - 480p - WEB-HD - AVC - AAC - HC-ESub-WR Exclusive


Buy Premium and Support Us.

SINGLE DIRECT FAST LINKS

http://www.heroupload.com/762a0e32affc5463/Vivegam.2017.Tamil.WEB-HD.480p.AVC.AAC.HC-ESub-WarezRock.Exclusive.mp4


http://filefloater.com/8yx/Vivegam.2017.Tamil.WEB-HD.480p.AVC.AAC.HC-ESub-WarezRock.Exclusive.mp4

Dear visitor, you are browsing our website as Guest.
We strongly recommend you to register and login to view hidden contents.

Comments:

Add Comments