Set as default Homepage|Bookmark
 
 
» » Kaashmora (2016) Tamil - 720p - WEB-HD - x264 - AAC - HW-ESub - MTR
Advertise

Kaashmora (2016) Tamil - 720p - WEB-HD - x264 - AAC - HW-ESub - MTR

Author: wroser on 3-02-2017, 10:49
]Kaashmora (2016) Tamil - 720p - WEB-HD - x264 - AAC - HW-ESub - MTR






General
Format                                   : MPEG-4
Format profile                           : Base Media
Codec ID                                 : isom (isom/iso2/mp41)
File size                                : 3.88 GiB
Duration                                 : 2 h 41 min
Overall bit rate mode                    : Constant
Overall bit rate                         : 3 433 kb/s
Encoded date                             : UTC 2017-02-01 14:22:49
Tagged date                              : UTC 2017-02-01 14:22:49
Writing application                      : Lavf57.57.100

Video
ID                                       : 1
Format                                   : MPEG-4 Visual
Format profile                           : Advanced [email protected]
Format settings, BVOP                    : No
Format settings, QPel                    : No
Format settings, GMC                     : No warppoints
Format settings, Matrix                  : Default (H.263)
Codec ID                                 : 20
Duration                                 : 2 h 41 min
Bit rate mode                            : Constant
Bit rate                                 : 3 330 kb/s
Width                                    : 1 278 pixels
Height                                   : 566 pixels
Display aspect ratio                     : 2.25:1
Frame rate mode                          : Constant
Frame rate                               : 30.000 FPS
Color space                              : YUV
Chroma subsampling                       : 4:2:0
Bit depth                                : 8 bits
Scan type                                : Progressive
Compression mode                         : Lossy
Bits/(Pixel*Frame)                       : 0.153
Stream size                              : 3.76 GiB (97%)
Writing library                          : Lavc57.48.101
Language                                 : English
Encoded date                             : UTC 2017-02-01 14:22:49
Tagged date                              : UTC 2017-02-01 14:22:49

Audio
ID                                       : 2
Format                                   : AAC
Format/Info                              : Advanced Audio Codec
Format profile                           : LC
Codec ID                                 : 40
Duration                                 : 2 h 41 min
Bit rate mode                            : Constant
Bit rate                                 : 96.0 kb/s
Channel(s)                               : 2 channels
Channel positions                        : Front: L R
Sampling rate                            : 44.1 kHz
Frame rate                               : 43.066 FPS (1024 spf)
Compression mode                         : Lossy
Stream size                              : 111 MiB (3%)
Language                                 : English
Default                                  : Yes
Alternate group                          : 1
Encoded date                             : UTC 2017-02-01 14:22:49
Tagged date                              : UTC 2017-02-01 14:22:49



Kaashmora (2016) Tamil - 720p - WEB-HD - x264 - AAC - HW-ESub - MTR
Kaashmora (2016) Tamil - 720p - WEB-HD - x264 - AAC - HW-ESub - MTR
Kaashmora (2016) Tamil - 720p - WEB-HD - x264 - AAC - HW-ESub - MTR
Kaashmora (2016) Tamil - 720p - WEB-HD - x264 - AAC - HW-ESub - MTR

[B]SINGLE DIRECT FAST LINKS[/B]

http://www.heroupload.com/e16ae34fafde8b2a/Kaashmora.2016.720p.WebRip.HW-ESub-MTR.mp4


[B]1GB LINKS[/B]



http://www.heroupload.com/da9f0e038d69093b/Kaashmora.2016.720p.WebRip.HW-ESub-MTR.mp4.001
http://www.heroupload.com/4edf159d508353f4/Kaashmora.2016.720p.WebRip.HW-ESub-MTR.mp4.002
http://www.heroupload.com/0a4e79eea788957e/Kaashmora.2016.720p.WebRip.HW-ESub-MTR.mp4.003
http://www.heroupload.com/672207f27b2690ce/Kaashmora.2016.720p.WebRip.HW-ESub-MTR.mp4.004
Dear visitor, you are browsing our website as Guest.
We strongly recommend you to register and login to view hidden contents.

Comments:

Add Comments