Set as default Homepage|Bookmark
 
 
» » Dhuruvangal Pathinaaru (2016) Tamil - 720p - WEB-HD - x264 - AAC - ESubs - TeamMTR
Advertise

Dhuruvangal Pathinaaru (2016) Tamil - 720p - WEB-HD - x264 - AAC - ESubs - TeamMTR

Author: wroser on 2-02-2017, 22:30

Dhuruvangal Pathinaaru (2016) Tamil - 720p - WEB-HD - x264 - AAC - ESubs - TeamMTR






General
Format                                   : MPEG-4
Format profile                           : Base Media
Codec ID                                 : isom (isom/iso2/avc1/mp41)
File size                                : 956 MiB
Duration                                 : 1 h 44 min
Overall bit rate                         : 1 284 kb/s
Writing application                      : Lavf57.25.100

Video
ID                                       : 1
Format                                   : AVC
Format/Info                              : Advanced Video Codec
Format profile                           : [email protected]
Format settings, CABAC                   : Yes
Format settings, ReFrames                : 4 frames
Codec ID                                 : avc1
Codec ID/Info                            : Advanced Video Coding
Duration                                 : 1 h 44 min
Bit rate                                 : 1 166 kb/s
Width                                    : 1 280 pixels
Height                                   : 720 pixels
Display aspect ratio                     : 16:9
Frame rate mode                          : Constant
Frame rate                               : 24.000 FPS
Color space                              : YUV
Chroma subsampling                       : 4:2:0
Bit depth                                : 8 bits
Scan type                                : Progressive
Bits/(Pixel*Frame)                       : 0.053
Stream size                              : 868 MiB (91%)
Writing library                          : x264 core 148
Encoding settings                        : cabac=1 / ref=3 / deblock=1:0:0 / analyse=0x1:0x111 / me=hex / subme=7 / psy=1 / psy_rd=1.00:0.00 / mixed_ref=1 / me_range=16 / chroma_me=1 / trellis=1 / 8x8dct=0 / cqm=0 / deadzone=21,11 / fast_pskip=1 / chroma_qp_offset=-2 / threads=16 / lookahead_threads=2 / sliced_threads=0 / nr=0 / decimate=1 / interlaced=0 / bluray_compat=0 / constrained_intra=0 / bframes=3 / b_pyramid=2 / b_adapt=1 / b_bias=0 / direct=1 / weightb=1 / open_gop=0 / weightp=2 / keyint=96 / keyint_min=9 / scenecut=0 / intra_refresh=0 / rc_lookahead=40 / rc=crf / mbtree=1 / crf=23.0 / qcomp=0.60 / qpmin=0 / qpmax=69 / qpstep=4 / vbv_maxrate=2509 / vbv_bufsize=2509 / crf_max=0.0 / nal_hrd=none / filler=0 / ip_ratio=1.40 / aq=1:1.00
Language                                 : English

Audio
ID                                       : 2
Format                                   : AAC
Format/Info                              : Advanced Audio Codec
Format profile                           : LC
Codec ID                                 : 40
Duration                                 : 1 h 44 min
Duration_LastFrame                       : -6 ms
Bit rate mode                            : Constant
Bit rate                                 : 112 kb/s
Channel(s)                               : 2 channels
Channel positions                        : Front: L R
Sampling rate                            : 44.1 kHz
Frame rate                               : 43.066 FPS (1024 spf)
Compression mode                         : Lossy
Stream size                              : 83.4 MiB (9%)
Language                                 : English
Default                                  : Yes
Alternate group                          : 1



Dhuruvangal Pathinaaru (2016) Tamil - 720p - WEB-HD - x264 - AAC - ESubs - TeamMTR
Dhuruvangal Pathinaaru (2016) Tamil - 720p - WEB-HD - x264 - AAC - ESubs - TeamMTR
Dhuruvangal Pathinaaru (2016) Tamil - 720p - WEB-HD - x264 - AAC - ESubs - TeamMTR



Buy a Premium Account for Fast Speed


[B]SINGLE DIRECT FAST LINKS[/B]




http://www.heroupload.com/6d1028c03a52ef22/Dhuruvangal.Pathinaaru.2016.720p.WEB-HD.AVC.MP4.ESubs.Tamil-MTR.mp4
http://www.heroupload.com/050752938810cc07/Dhuruvangal.Pathinaaru.2016.720p.WEB-HD.AVC.MP4.ESubs.Tamil-MTR.srt


Dear visitor, you are browsing our website as Guest.
We strongly recommend you to register and login to view hidden contents.

Comments:

Add Comments