Set as default Homepage|Bookmark
 
 
» » Si3 - Singam 3 (2017) Tamil - 720p - WEB-HD - AVC - AAC - ESub [TK]
Advertise

Si3 - Singam 3 (2017) Tamil - 720p - WEB-HD - AVC - AAC - ESub [TK]

Author: wroser on 30-03-2017, 02:06
Si3 - Singam 3 (2017) Tamil - 720p - WEB-HD - AVC - AAC - ESub [TK]





Format                                   : MPEG-4
Format profile                           : Base Media
Codec ID                                 : isom (isom/iso2/avc1/mp41)
File size                                : 3.55 GiB
Duration                                 : 2 h 31 min
Overall bit rate mode                    : Variable
Overall bit rate                         : 3 351 kb/s
Writing application                      : Lavf57.66.105

Video
ID                                       : 1
Format                                   : AVC
Format/Info                              : Advanced Video Codec
Format profile                           : [email protected]
Format settings, CABAC                   : Yes
Format settings, ReFrames                : 3 frames
Codec ID                                 : avc1
Codec ID/Info                            : Advanced Video Coding
Duration                                 : 2 h 31 min
Bit rate mode                            : Constant
Bit rate                                 : 3 250 kb/s
Width                                    : 1 280 pixels
Height                                   : 720 pixels
Display aspect ratio                     : 16:9
Frame rate mode                          : Constant
Frame rate                               : 29.970 (30000/1001) FPS
Color space                              : YUV
Chroma subsampling                       : 4:2:0
Bit depth                                : 8 bits
Scan type                                : Progressive
Bits/(Pixel*Frame)                       : 0.118
Stream size                              : 3.45 GiB (97%)

Audio
ID                                       : 2
Format                                   : AAC
Format/Info                              : Advanced Audio Codec
Format profile                           : LC
Codec ID                                 : 40
Duration                                 : 2 h 31 min
Bit rate mode                            : Variable
Bit rate                                 : 93.4 kb/s
Maximum bit rate                         : 97.5 kb/s
Channel(s)                               : 2 channels
Channel positions                        : Front: L R
Sampling rate                            : 48.0 kHz
Frame rate                               : 46.875 FPS (1024 spf)
Compression mode                         : Lossy
Stream size                              : 101 MiB (3%)
Language                                 : English
Default                                  : Yes
Alternate group                          : 1



Si3 - Singam 3 (2017) Tamil - 720p - WEB-HD - AVC - AAC - ESub [TK]Si3 - Singam 3 (2017) Tamil - 720p - WEB-HD - AVC - AAC - ESub [TK]Si3 - Singam 3 (2017) Tamil - 720p - WEB-HD - AVC - AAC - ESub [TK]Si3 - Singam 3 (2017) Tamil - 720p - WEB-HD - AVC - AAC - ESub [TK]



[B]SINGLE DIRECT FAST LINKS[/B]

http://www.heroupload.com/0a81630a60e97df7/Si3-Singam.3.2017.Tamil.v2.WEB-HD.720p.AVC.AAC.ESub-TK.mp4


[B]1GB LINKS[/B]



http://www.heroupload.com/8e011a74983a69d5/Si3-Singam.3.2017.Tamil.v2.WEB-HD.720p.AVC.AAC.ESub-TK.mp4.001
http://www.heroupload.com/a6551d1d43622694/Si3-Singam.3.2017.Tamil.v2.WEB-HD.720p.AVC.AAC.ESub-TK.mp4.002
http://www.heroupload.com/552c5517fa637b96/Si3-Singam.3.2017.Tamil.v2.WEB-HD.720p.AVC.AAC.ESub-TK.mp4.003
http://www.heroupload.com/d383e66eff04622f/Si3-Singam.3.2017.Tamil.v2.WEB-HD.720p.AVC.AAC.ESub-TK.mp4.004

Dear visitor, you are browsing our website as Guest.
We strongly recommend you to register and login to view hidden contents.

Comments:

Add Comments