Set as default Homepage|Bookmark
 
 
» » Karzzzz (2008) (MUSIC VIDEOS) 1080p Untouched WEB-HD AVC DD5.1-DUS
Advertise

Karzzzz (2008) (MUSIC VIDEOS) 1080p Untouched WEB-HD AVC DD5.1-DUS

Author: wroser on 26-09-2019, 11:20
Karzzzz (2008) (MUSIC VIDEOS) 1080p Untouched WEB-HD AVC DD5.1-DUS





Overall bit rate mode : Variable
Overall bit rate : 9 454 kb/s
Encoded date : UTC 2019-09-08 15:16:47
Writing application : mkvmerge v36.0.0 ('Is That Jazz?') 32-bit
Writing library : libebml v1.3.9 + libmatroska v1.5.2

Video
ID : 1
Format : AVC
Format/Info : Advanced Video Codec
Format profile : [email protected]
Format settings : CABAC / 4 Ref Frames
Format settings, CABAC : Yes
Format settings, Reference frames : 4 frames
Codec ID : V_MPEG4/ISO/AVC
Bit rate mode : Variable
Bit rate : 8 868 kb/s
Maximum bit rate : 15.0 Mb/s
Width : 1 920 pixels
Height : 816 pixels
Display aspect ratio : 2.35:1
Frame rate mode : Constant
Frame rate : 25.000 FPS
Color space : YUV
Chroma subsampling : 4:2:0
Bit depth : 8 bits
Scan type : Progressive
Bits/(Pixel*Frame) : 0.226
Stream size : 162 MiB (93%)
Default : Yes
Forced : No
Color range : Limited
Color primaries : BT.709
Transfer characteristics : BT.709
Matrix coefficients : BT.709

Audio
ID : 2
Format : E-AC-3
Format/Info : Enhanced AC-3
Commercial name : Dolby Digital Plus
Codec ID : A_EAC3
Bit rate mode : Constant
Bit rate : 640 kb/s
Channel(s) : 6 channels
Channel layout : L R C LFE Ls Rs
Sampling rate : 48.0 kHz
Frame rate : 31.250 FPS (1536 SPF)
Compression mode : Lossy
Delay relative to video : 24 ms
Stream size : 11.7 MiB (7%)
Language : English
Service kind : Complete Main
Default : Yes
Forced : No

Text
ID : 3
Format : UTF-8
Codec ID : S_TEXT/UTF8
Codec ID/Info : UTF-8 Plain Text
Bit rate : 32 b/s
Count of elements : 18
Stream size : 609 Bytes (0%)
Default : Yes
Forced : No



Karzzzz (2008) (MUSIC VIDEOS) 1080p Untouched WEB-HD AVC DD5.1-DUS
Karzzzz (2008) (MUSIC VIDEOS) 1080p Untouched WEB-HD AVC DD5.1-DUS
Karzzzz (2008) (MUSIC VIDEOS) 1080p Untouched WEB-HD AVC DD5.1-DUS
Karzzzz (2008) (MUSIC VIDEOS) 1080p Untouched WEB-HD AVC DD5.1-DUS
Karzzzz (2008) (MUSIC VIDEOS) 1080p Untouched WEB-HD AVC DD5.1-DUS
Karzzzz (2008) (MUSIC VIDEOS) 1080p Untouched WEB-HD AVC DD5.1-DUS
Karzzzz (2008) (MUSIC VIDEOS) 1080p Untouched WEB-HD AVC DD5.1-DUS
Karzzzz (2008) (MUSIC VIDEOS) 1080p Untouched WEB-HD AVC DD5.1-DUS
Karzzzz (2008) (MUSIC VIDEOS) 1080p Untouched WEB-HD AVC DD5.1-DUS
Karzzzz (2008) (MUSIC VIDEOS) 1080p Untouched WEB-HD AVC DD5.1-DUS
Karzzzz (2008) (MUSIC VIDEOS) 1080p Untouched WEB-HD AVC DD5.1-DUS
Karzzzz (2008) (MUSIC VIDEOS) 1080p Untouched WEB-HD AVC DD5.1-DUS

SINGLE DIRECT FAST LINKS


https://www.heroupload.com/9b533c7393b4cb8a/01-Lut_Jaaon_Lut_Jaaon_(1st)_[By-DusIcTv].mkv
https://www.heroupload.com/8a8d721b0ad8b8a8/02-Sisak_Sisak_[By-DusIcTv].mkv
https://www.heroupload.com/9fa05b26fb7452e8/03-Masha_Allah_(1st)_[By-DusIcTv].mkv
https://www.heroupload.com/27c105f789c7256a/04-Hari_Om_Hari_Om_[By-DusIcTv].mkv
https://www.heroupload.com/d9ce138f113a0d30/05-Ek_Haseena_Thi_(Dance_Music)_[By-DusIcTv].mkv
https://www.heroupload.com/f3f5c99c3f5414ad/06-Masha_Allah_(2nd)_[By-DusIcTv].mkv
https://www.heroupload.com/0a55da06f036855b/07-Soniye_Je_Tere_[By-DusIcTv].mkv
https://www.heroupload.com/b79e9075c62746b9/08-Lut_Jaaon_Lut_Jaaon_(2nd)_[By-DusIcTv].mkv
https://www.heroupload.com/2a3780fbd6177ac8/09-Tere_Bin_Chain_Na_Aave_[By-DusIcTv].mkv
https://www.heroupload.com/0d4cd6708b328625/10-Tandoori_Nights_[By-DusIcTv].mkv
https://www.heroupload.com/e1e5ffe9db67d503/11-Lut_Jaaon_Lut_Jaaon_(3rd)_[By-DusIcTv].mkv
https://www.heroupload.com/7ba67a682086bd98/12-Ek_Haseena_Thi_[By-DusIcTv].mkv
https://www.heroupload.com/b77aa8bfceb5a4cc/13-Dhoom_Tere_Ishq_Ki_[By-DusIcTv].mkv





Теги: Karzzzz

Dear visitor, you are browsing our website as Guest.
We strongly recommend you to register and login to view hidden contents.

Comments:

Add Comments