Set as default Homepage|Bookmark
 
 
» » The Villain (2018) Kannada - 720p - WEB-HD - UNTOUCHED - AVC - AAC-TMV
Advertise

The Villain (2018) Kannada - 720p - WEB-HD - UNTOUCHED - AVC - AAC-TMV

Author: wroser on 21-11-2018, 19:07
The Villain (2018) Kannada - 720p - WEB-HD - UNTOUCHED - AVC - AAC-TMV





Format                      : Matroska
Format version              : Version 4 / Version 2
File size                   : 1.94 GiB
Duration                    : 2 h 48 min
Overall bit rate            : 1 652 kb/s
Encoded date                : UTC 2018-11-21 01:40:19
Writing application         : mkvmerge v7.1.0 ('Good Love') 32bit built on Jul 27 2014 12:59:18
Writing library             : libebml v1.3.0 + libmatroska v1.4.1

Video
ID                          : 1
Format                      : AVC
Format/Info                 : Advanced Video Codec
Format profile              : [email protected]
Format settings, CABAC      : Yes
Format settings, RefFrames  : 4 frames
Codec ID                    : V_MPEG4/ISO/AVC
Duration                    : 2 h 48 min
Bit rate                    : 1 533 kb/s
Width                       : 1 280 pixels
Height                      : 720 pixels
Display aspect ratio        : 16:9
Frame rate mode             : Constant
Frame rate                  : 25.000 FPS
Color space                 : YUV
Chroma subsampling          : 4:2:0
Bit depth                   : 8 bits
Scan type                   : Progressive
Bits/(Pixel*Frame)          : 0.067
Stream size                 : 1.79 GiB (92%)
Writing library             : x264 core 155 r2901 7d0ff22
Encoding settings           : cabac=1 / ref=2 / deblock=1:0:0 / analyse=0x3:0x113 / me=hex / subme=6 / psy=1 / psy_rd=1.00:0.00 / mixed_ref=1 / me_range=16 / chroma_me=1 / trellis=1 / 8x8dct=1 / cqm=0 / deadzone=21,11 / fast_pskip=1 / chroma_qp_offset=-2 / threads=22 / lookahead_threads=3 / sliced_threads=0 / nr=0 / decimate=1 / interlaced=0 / bluray_compat=0 / constrained_intra=0 / bframes=3 / b_pyramid=2 / b_adapt=1 / b_bias=0 / direct=1 / weightb=1 / open_gop=0 / weightp=1 / keyint=250 / keyint_min=25 / scenecut=40 / intra_refresh=0 / rc_lookahead=30 / rc=abr / mbtree=1 / bitrate=1533 / ratetol=1.0 / qcomp=0.60 / qpmin=0 / qpmax=69 / qpstep=4 / vbv_maxrate=17500 / vbv_bufsize=17500 / nal_hrd=none / filler=0 / ip_ratio=1.40 / aq=1:1.00
Language                    : Kannada
Default                     : Yes
Forced                      : No
Color range                 : Limited
Color primaries             : BT.601 PAL
Transfer characteristics    : BT.709
Matrix coefficients         : BT.601

Audio
ID                          : 2
Format                      : AAC
Format/Info                 : Advanced Audio Codec
Format profile              : LC
Codec ID                    : A_AAC
Duration                    : 2 h 48 min
Bit rate                    : 126 kb/s
Channel(s)                  : 2 channels
Channel positions           : Front: L R
Sampling rate               : 44.1 kHz
Frame rate                  : 43.066 FPS (1024 SPF)
Compression mode            : Lossy
Stream size                 : 151 MiB (8%)
Language                    : Kannada
Default                     : Yes
Forced                      : No



The Villain (2018) Kannada - 720p - WEB-HD - UNTOUCHED - AVC - AAC-TMVThe Villain (2018) Kannada - 720p - WEB-HD - UNTOUCHED - AVC - AAC-TMVThe Villain (2018) Kannada - 720p - WEB-HD - UNTOUCHED - AVC - AAC-TMVThe Villain (2018) Kannada - 720p - WEB-HD - UNTOUCHED - AVC - AAC-TMVThe Villain (2018) Kannada - 720p - WEB-HD - UNTOUCHED - AVC - AAC-TMVThe Villain (2018) Kannada - 720p - WEB-HD - UNTOUCHED - AVC - AAC-TMVThe Villain (2018) Kannada - 720p - WEB-HD - UNTOUCHED - AVC - AAC-TMVThe Villain (2018) Kannada - 720p - WEB-HD - UNTOUCHED - AVC - AAC-TMV

SINGLE DIRECT FAST LINKS
https://www.heroupload.us/d4d3420a55cbd5e9/The.Villain.2018.Kannada.WEB-HD.720p.UNTOUCHED-TMV.mkv


https://filefloater.com/Vee/The.Villain.2018.Kannada.WEB-HD.720p.UNTOUCHED-TMV.mkv


Buy Premium From My Links & Support Me

Теги: The

Dear visitor, you are browsing our website as Guest.
We strongly recommend you to register and login to view hidden contents.

Comments:

Add Comments