Set as default Homepage|Bookmark
 
 
» » Pulimurugan (2016) Malayalam - 480p - WEB-HD- AVC - AAC - Exclusive
Advertise

Pulimurugan (2016) Malayalam - 480p - WEB-HD- AVC - AAC - Exclusive

Author: wroser on 20-02-2017, 11:02

Pulimurugan (2016) Malayalam - 480p - WEB-HD- AVC - AAC - Exclusive





General
Format                                   : MPEG-4
Format profile                           : Base Media
Codec ID                                 : isom (isom)
File size                                : 1.53 GiB
Duration                                 : 2 h 33 min
Overall bit rate mode                    : Variable
Overall bit rate                         : 1 428 kb/s
Encoded date                             : UTC 2017-02-20 07:32:58
Tagged date                              : UTC 2017-02-20 07:32:58
Writing application                      : MkvToMp4 [www.mkvtomp4.ru] version 0.224 (x64)

Video
ID                                       : 1
Format                                   : AVC
Format/Info                              : Advanced Video Codec
Format profile                           : [email protected]
Format settings, CABAC                   : No
Format settings, ReFrames                : 1 frame
Format settings, GOP                     : M=1, N=25
Codec ID                                 : avc1
Codec ID/Info                            : Advanced Video Coding
Duration                                 : 2 h 33 min
Bit rate mode                            : Constant
Bit rate                                 : 1 300 kb/s
Maximum bit rate                         : 2 996 kb/s
Width                                    : 720 pixels
Height                                   : 404 pixels
Display aspect ratio                     : 16:9
Frame rate mode                          : Constant
Frame rate                               : 25.000 FPS
Color space                              : YUV
Chroma subsampling                       : 4:2:0
Bit depth                                : 8 bits
Scan type                                : Progressive
Bits/(Pixel*Frame)                       : 0.179
Stream size                              : 1.39 GiB (91%)
Language                                 : English
Tagged date                              : UTC 2017-02-20 07:33:09

Audio
ID                                       : 2
Format                                   : AAC
Format/Info                              : Advanced Audio Codec
Format profile                           : LC
Codec ID                                 : 40
Duration                                 : 2 h 33 min
Bit rate mode                            : Variable
Bit rate                                 : 125 kb/s
Maximum bit rate                         : 135 kb/s
Channel(s)                               : 2 channels
Channel positions                        : Front: L R
Sampling rate                            : 48.0 kHz
Frame rate                               : 46.875 FPS (1024 spf)
Compression mode                         : Lossy
Stream size                              : 137 MiB (9%)
Language                                 : English
Default                                  : Yes
Alternate group                          : 1
Encoded date                             : UTC 2017-02-20 07:33:04
Tagged date                              : UTC 2017-02-20 07:33:09


Pulimurugan (2016) Malayalam - 480p - WEB-HD- AVC - AAC - Exclusive
Pulimurugan (2016) Malayalam - 480p - WEB-HD- AVC - AAC - Exclusive
Pulimurugan (2016) Malayalam - 480p - WEB-HD- AVC - AAC - Exclusive
Pulimurugan (2016) Malayalam - 480p - WEB-HD- AVC - AAC - Exclusive



[B]SINGLE DIRECT FAST LINKS[/B]


http://www.heroupload.com/3d2bea6ec633931f/Pulimurugan.2016.Malayalam.480p.WEB-HD.AVC.MP4-Exclusive.mp4


Dear visitor, you are browsing our website as Guest.
We strongly recommend you to register and login to view hidden contents.

Comments:

Add Comments