Set as default Homepage|Bookmark
 
 
» » Fidaa (2017) 720p HDRip x264 [Dual Audio][Malayalam+Telugu] TMV
Advertise

Fidaa (2017) 720p HDRip x264 [Dual Audio][Malayalam+Telugu] TMV

Author: wroser on 20-02-2018, 01:26
Fidaa (2017) 720p HDRip x264 [Dual Audio][Malayalam+Telugu] TMV





General
Format                      : Matroska
Format version              : Version 4 / Version 2
File size                   : 793 MiB
Duration                    : 2 h 27 min
Overall bit rate mode       : Variable
Overall bit rate            : 752 kb/s
Encoded date                : UTC 2018-02-18 20:44:26
Writing application         : mkvmerge v7.1.0 ('Good Love') 32bit built on Jul 27 2014 12:59:18
Writing library             : libebml v1.3.0 + libmatroska v1.4.1

Video
ID                          : 1
Format                      : AVC
Format/Info                 : Advanced Video Codec
Format profile              : [email protected]
Format settings, CABAC      : Yes
Format settings, RefFrames  : 4 frames
Codec ID                    : V_MPEG4/ISO/AVC
Duration                    : 2 h 27 min
Bit rate                    : 580 kb/s
Width                       : 720 pixels
Height                      : 304 pixels
Display aspect ratio        : 2.35:1
Frame rate mode             : Constant
Frame rate                  : 24.000 FPS
Color space                 : YUV
Chroma subsampling          : 4:2:0
Bit depth                   : 8 bits
Scan type                   : Progressive
Bits/(Pixel*Frame)          : 0.110
Stream size                 : 612 MiB (77%)
Writing library             : x264 core 148 r2744 b97ae06
Encoding settings           : cabac=1 / ref=3 / deblock=1:0:0 / analyse=0x3:0x113 / me=hex / subme=7 / psy=1 / psy_rd=1.00:0.00 / mixed_ref=1 / me_range=16 / chroma_me=1 / trellis=1 / 8x8dct=1 / cqm=0 / deadzone=21,11 / fast_pskip=1 / chroma_qp_offset=-2 / threads=9 / lookahead_threads=1 / sliced_threads=0 / nr=0 / decimate=1 / interlaced=0 / bluray_compat=0 / constrained_intra=0 / bframes=3 / b_pyramid=2 / b_adapt=1 / b_bias=0 / direct=1 / weightb=1 / open_gop=0 / weightp=2 / keyint=240 / keyint_min=24 / scenecut=40 / intra_refresh=0 / rc_lookahead=40 / rc=2pass / mbtree=1 / bitrate=580 / ratetol=1.0 / qcomp=0.60 / qpmin=0 / qpmax=69 / qpstep=4 / cplxblur=20.0 / qblur=0.5 / ip_ratio=1.40 / aq=1:1.00
Language                    : Telugu
Default                     : Yes
Forced                      : No

Audio #1
ID                          : 2
Format                      : MPEG Audio
Format version              : Version 1
Format profile              : Layer 3
Mode                        : Joint stereo
Mode extension              : MS Stereo
Codec ID                    : A_MPEG/L3
Codec ID/Hint               : MP3
Duration                    : 2 h 27 min
Bit rate mode               : Variable
Bit rate                    : 85.8 kb/s
Nominal bit rate            : 80.0 kb/s
Channel(s)                  : 2 channels
Sampling rate               : 44.1 kHz
Frame rate                  : 38.281 FPS (1152 SPF)
Compression mode            : Lossy
Stream size                 : 90.5 MiB (11%)
Writing library             : LAME3.99r
Encoding settings           : -m j -V 4 -q 3 -lowpass 13.5 --abr 80
Language                    : Malayalam
Default                     : Yes
Forced                      : No

Audio #2
ID                          : 3
Format                      : MPEG Audio
Format version              : Version 1
Format profile              : Layer 3
Mode                        : Joint stereo
Mode extension              : MS Stereo
Codec ID                    : A_MPEG/L3
Codec ID/Hint               : MP3
Duration                    : 2 h 27 min
Bit rate mode               : Variable
Bit rate                    : 80.0 kb/s
Channel(s)                  : 2 channels
Sampling rate               : 44.1 kHz
Frame rate                  : 38.281 FPS (1152 SPF)
Compression mode            : Lossy
Stream size                 : 87.7 MiB (11%)
Writing library             : LAME3.99r
Encoding settings           : -m j -V 4 -q 3 -lowpass 13.5 --abr 80
Language                    : Telugu
Default                     : No
Forced                      : No

Text
ID                          : 4
Format                      : UTF-8
Codec ID                    : S_TEXT/UTF8
Codec ID/Info               : UTF-8 Plain Text
Duration                    : 19 min 48 s
Bit rate                    : 51 b/s
Count of elements           : 261
Stream size                 : 7.43 KiB (0%)
Language                    : English
Default                     : Yes
Forced                      : No


Fidaa (2017) 720p HDRip x264 [Dual Audio][Malayalam+Telugu] TMVFidaa (2017) 720p HDRip x264 [Dual Audio][Malayalam+Telugu] TMVFidaa (2017) 720p HDRip x264 [Dual Audio][Malayalam+Telugu] TMVFidaa (2017) 720p HDRip x264 [Dual Audio][Malayalam+Telugu] TMVFidaa (2017) 720p HDRip x264 [Dual Audio][Malayalam+Telugu] TMVFidaa (2017) 720p HDRip x264 [Dual Audio][Malayalam+Telugu] TMV

SINGLE DIRECT FAST LINKS

https://www.heroupload.com/561062a0e49731b3/Fidaa.2017.HDRip.x264.Malayalam+Telugu.MP3-TMV.mkv



http://filefloater.com/4ya/Fidaa.2017.HDRip.x264.Malayalam+Telugu.MP3-TMV.mkv




Теги: Fidaa

Dear visitor, you are browsing our website as Guest.
We strongly recommend you to register and login to view hidden contents.

Comments:

Add Comments