Set as default Homepage|Bookmark
 
 
» » Pattabhiraman (2019) Malayalam - 720p - DVDRip - x264 - DD5.1 - Esubs-BWT
Advertise

Pattabhiraman (2019) Malayalam - 720p - DVDRip - x264 - DD5.1 - Esubs-BWT

Author: wroser on 8-11-2019, 21:59
Pattabhiraman (2019) Malayalam - 720p - DVDRip - x264 - DD5.1 - Esubs-BWT






Format                                   : Matroska
Format version                           : Version 4
File size                                : 1.46 GiB
Duration                                 : 2 h 18 min
Overall bit rate                         : 1 505 kb/s
Encoded date                             : UTC 2019-11-08 19:44:40
Writing application                      : mkvmerge v37.0.0 ('Leave It') 64-bit
Writing library                          : libebml v1.3.9 + libmatroska v1.5.2

Video
ID                                       : 1
Format                                   : AVC
Format/Info                              : Advanced Video Codec
Format profile                           : [email protected]
Format settings                          : CABAC / 4 Ref Frames
Format settings, CABAC                   : Yes
Format settings, Reference frames        : 4 frames
Codec ID                                 : V_MPEG4/ISO/AVC
Duration                                 : 2 h 18 min
Bit rate                                 : 1 289 kb/s
Width                                    : 1 280 pixels
Height                                   : 544 pixels
Display aspect ratio                     : 2.35:1
Frame rate mode                          : Constant
Frame rate                               : 23.976 (24000/1001) FPS
Color space                              : YUV
Chroma subsampling                       : 4:2:0
Bit depth                                : 8 bits
Scan type                                : Progressive
Bits/(Pixel*Frame)                       : 0.077
Stream size                              : 1.24 GiB (85%)
Writing library                          : x264 core 157 r2935 545de2f
Encoding settings                        : cabac=1 / ref=2 / deblock=1:0:0 / analyse=0x3:0x113 / me=hex / subme=6 / psy=1 / psy_rd=1.00:0.00 / mixed_ref=1 / me_range=16 / chroma_me=1 / trellis=1 / 8x8dct=1 / cqm=0 / deadzone=21,11 / fast_pskip=1 / chroma_qp_offset=-2 / threads=12 / lookahead_threads=2 / sliced_threads=0 / nr=0 / decimate=1 / interlaced=0 / bluray_compat=0 / constrained_intra=0 / bframes=3 / b_pyramid=2 / b_adapt=1 / b_bias=0 / direct=1 / weightb=1 / open_gop=0 / weightp=1 / keyint=240 / keyint_min=24 / scenecut=40 / intra_refresh=0 / rc_lookahead=30 / rc=abr / mbtree=1 / bitrate=1289 / ratetol=1.0 / qcomp=0.60 / qpmin=0 / qpmax=69 / qpstep=4 / ip_ratio=1.40 / aq=1:1.00
Language                                 : Malayalam
Default                                  : Yes
Forced                                   : No
Color range                              : Limited
Color primaries                          : BT.601 NTSC
Transfer characteristics                 : BT.709
Matrix coefficients                      : BT.601

Audio
ID                                       : 2
Format                                   : AC-3
Format/Info                              : Audio Coding 3
Commercial name                          : Dolby Digital
Codec ID                                 : A_AC3
Duration                                 : 2 h 18 min
Bit rate mode                            : Constant
Bit rate                                 : 224 kb/s
Channel(s)                               : 6 channels
Channel layout                           : L R C LFE Ls Rs
Sampling rate                            : 48.0 kHz
Frame rate                               : 31.250 FPS (1536 SPF)
Bit depth                                : 16 bits
Compression mode                         : Lossy
Delay relative to video                  : -5 ms
Stream size                              : 222 MiB (15%)
Language                                 : Malayalam
Service kind                             : Complete Main
Default                                  : Yes
Forced                                   : No

Text
ID                                       : 3
Format                                   : UTF-8
Codec ID                                 : S_TEXT/UTF8
Codec ID/Info                            : UTF-8 Plain Text
Duration                                 : 2 h 13 min
Bit rate                                 : 15 b/s
Count of elements                        : 528
Stream size                              : 15.4 KiB (0%)
Language                                 : English
Default                                  : Yes
Forced                                   : No



Pattabhiraman (2019) Malayalam - 720p - DVDRip - x264 - DD5.1 - Esubs-BWTPattabhiraman (2019) Malayalam - 720p - DVDRip - x264 - DD5.1 - Esubs-BWTPattabhiraman (2019) Malayalam - 720p - DVDRip - x264 - DD5.1 - Esubs-BWTPattabhiraman (2019) Malayalam - 720p - DVDRip - x264 - DD5.1 - Esubs-BWTPattabhiraman (2019) Malayalam - 720p - DVDRip - x264 - DD5.1 - Esubs-BWTPattabhiraman (2019) Malayalam - 720p - DVDRip - x264 - DD5.1 - Esubs-BWTPattabhiraman (2019) Malayalam - 720p - DVDRip - x264 - DD5.1 - Esubs-BWTPattabhiraman (2019) Malayalam - 720p - DVDRip - x264 - DD5.1 - Esubs-BWTPattabhiraman (2019) Malayalam - 720p - DVDRip - x264 - DD5.1 - Esubs-BWTPattabhiraman (2019) Malayalam - 720p - DVDRip - x264 - DD5.1 - Esubs-BWTPattabhiraman (2019) Malayalam - 720p - DVDRip - x264 - DD5.1 - Esubs-BWTPattabhiraman (2019) Malayalam - 720p - DVDRip - x264 - DD5.1 - Esubs-BWTPattabhiraman (2019) Malayalam - 720p - DVDRip - x264 - DD5.1 - Esubs-BWTPattabhiraman (2019) Malayalam - 720p - DVDRip - x264 - DD5.1 - Esubs-BWT

SINGLE DIRECT FAST LINKS



https://www.heroupload.com/977ab9e037d55fdb/Pattabhiraman.2019.Malayalam.DVDRip.720p.x264.DD5.1.ESub-BWT.mkv



Теги: Pattabhiraman

Dear visitor, you are browsing our website as Guest.
We strongly recommend you to register and login to view hidden contents.

Comments:

Add Comments