Set as default Homepage|Bookmark
 
 
» » Autorsha (2018) Malayalam - 720p - DVDRip - x264 - DD5.1 - ESub-TMV
Advertise

Autorsha (2018) Malayalam - 720p - DVDRip - x264 - DD5.1 - ESub-TMV

Author: wroser on 28-03-2019, 11:06
Autorsha (2018) Malayalam - 720p - DVDRip - x264 - DD5.1 - ESub-TMV





Format                                   : Matroska
Format version                           : Version 4
File size                                : 1.30 GiB
Duration                                 : 1 h 39 min
Overall bit rate                         : 1 864 kb/s
Encoded date                             : UTC 2019-03-27 20:46:02
Writing application                      : mkvmerge v29.0.0 ('Like It Or Not') 32-bit
Writing library                          : libebml v1.3.6 + libmatroska v1.4.9

Video
ID                                       : 1
Format                                   : AVC
Format/Info                              : Advanced Video Codec
Format profile                           : [email protected]
Format settings                          : CABAC / 4 Ref Frames
Format settings, CABAC                   : Yes
Format settings, RefFrames               : 4 frames
Codec ID                                 : V_MPEG4/ISO/AVC
Duration                                 : 1 h 39 min
Bit rate                                 : 1 638 kb/s
Width                                    : 1 280 pixels
Height                                   : 544 pixels
Display aspect ratio                     : 2.35:1
Frame rate mode                          : Variable
Frame rate                               : 23.915 FPS
Color space                              : YUV
Chroma subsampling                       : 4:2:0
Bit depth                                : 8 bits
Scan type                                : Progressive
Bits/(Pixel*Frame)                       : 0.098
Stream size                              : 1.14 GiB (88%)
Writing library                          : x264 core 155 r2901 7d0ff22
Encoding settings                        : cabac=1 / ref=2 / deblock=1:0:0 / analyse=0x3:0x113 / me=hex / subme=4 / psy=1 / psy_rd=1.00:0.00 / mixed_ref=0 / me_range=16 / chroma_me=1 / trellis=1 / 8x8dct=1 / cqm=0 / deadzone=21,11 / fast_pskip=1 / chroma_qp_offset=0 / threads=12 / lookahead_threads=3 / sliced_threads=0 / nr=0 / decimate=1 / interlaced=0 / bluray_compat=0 / constrained_intra=0 / bframes=3 / b_pyramid=2 / b_adapt=1 / b_bias=0 / direct=1 / weightb=1 / open_gop=0 / weightp=1 / keyint=240 / keyint_min=24 / scenecut=40 / intra_refresh=0 / rc_lookahead=20 / rc=abr / mbtree=1 / bitrate=1638 / ratetol=1.0 / qcomp=0.60 / qpmin=0 / qpmax=69 / qpstep=4 / vbv_maxrate=25000 / vbv_bufsize=25000 / nal_hrd=none / filler=0 / ip_ratio=1.40 / aq=1:1.00
Default                                  : Yes
Forced                                   : No
Color range                              : Limited
Color primaries                          : BT.601 NTSC
Transfer characteristics                 : BT.709
Matrix coefficients                      : BT.601

Audio
ID                                       : 2
Format                                   : E-AC-3
Format/Info                              : Enhanced AC-3
Commercial name                          : Dolby Digital Plus
Codec ID                                 : A_EAC3
Duration                                 : 1 h 39 min
Bit rate mode                            : Constant
Bit rate                                 : 224 kb/s
Channel(s)                               : 6 channels
Channel layout                           : L R C LFE Ls Rs
Sampling rate                            : 48.0 kHz
Frame rate                               : 31.250 FPS (1536 SPF)
Compression mode                         : Lossy
Delay relative to video                  : 267 ms
Stream size                              : 160 MiB (12%)
Service kind                             : Complete Main
Default                                  : Yes
Forced                                   : No

Text
ID                                       : 3
Format                                   : UTF-8
Codec ID                                 : S_TEXT/UTF8
Codec ID/Info                            : UTF-8 Plain Text
Duration                                 : 1 h 34 min
Bit rate                                 : 24 b/s
Count of elements                        : 510
Stream size                              : 17.2 KiB (0%)
Language                                 : English
Default                                  : Yes
Forced                                   : No




Autorsha (2018) Malayalam - 720p - DVDRip - x264 - DD5.1 - ESub-TMVAutorsha (2018) Malayalam - 720p - DVDRip - x264 - DD5.1 - ESub-TMVAutorsha (2018) Malayalam - 720p - DVDRip - x264 - DD5.1 - ESub-TMVAutorsha (2018) Malayalam - 720p - DVDRip - x264 - DD5.1 - ESub-TMVAutorsha (2018) Malayalam - 720p - DVDRip - x264 - DD5.1 - ESub-TMVAutorsha (2018) Malayalam - 720p - DVDRip - x264 - DD5.1 - ESub-TMV

SINGLE DIRECT FAST LINKS


https://www.heroupload.com/02fccf1657c20922/Autorsha.2018.Malayalam.DVDRip.720p.x264.DD5.1.ESub-TMV.mkv




Buy Premium From My Links & Support Me

Теги: Autorsha

Dear visitor, you are browsing our website as Guest.
We strongly recommend you to register and login to view hidden contents.

Comments:

Add Comments
Reply
  • Group: Guests
  • ICQ:
  • Registration: --
  • Status:
  • 0 Comment
  • 0 Article
^
Wow! Such an amazing and helpful post this is. I really really love it. It’s so good and so awesome Source for many more.