Set as default Homepage|Bookmark
 
 
» » Varathan (2018) Malayalam - 1080p - WEB-HD - AVC - AAC-TMV
Advertise

Varathan (2018) Malayalam - 1080p - WEB-HD - AVC - AAC-TMV

Author: wroser on 1-12-2018, 13:51
Varathan (2018) Malayalam - 1080p - WEB-HD - AVC - AAC-TMV





Format                      : MPEG-4
Format profile              : Base Media
Codec ID                    : isom (isom/iso2/avc1/mp41)
File size                   : 3.90 GiB
Duration                    : 2 h 3 min
Overall bit rate mode       : Constant
Overall bit rate            : 4 542 kb/s
Writing application         : Lavf58.20.100

Video
ID                          : 1
Format                      : AVC
Format/Info                 : Advanced Video Codec
Format profile              : [email protected]
Format settings, CABAC      : Yes
Format settings, RefFrames  : 1 frame
Format settings, GOP        : M=1, N=100
Codec ID                    : avc1
Codec ID/Info               : Advanced Video Coding
Duration                    : 2 h 3 min
Bit rate mode               : Constant
Bit rate                    : 4 500 kb/s
Width                       : 1 920 pixels
Height                      : 1 080 pixels
Display aspect ratio        : 16:9
Frame rate mode             : Constant
Frame rate                  : 25.000 FPS
Color space                 : YUV
Chroma subsampling          : 4:2:0
Bit depth                   : 8 bits
Scan type                   : Progressive
Bits/(Pixel*Frame)          : 0.087
Stream size                 : 3.85 GiB (99%)
Language                    : Malayalam

Audio
ID                          : 2
Format                      : AAC
Format/Info                 : Advanced Audio Codec
Format profile              : LC
Codec ID                    : 40
Duration                    : 2 h 3 min
Bit rate mode               : Constant
Bit rate                    : 61.4 kb/s
Channel(s)                  : 2 channels
Channel positions           : Front: L R
Sampling rate               : 48.0 kHz
Frame rate                  : 46.875 FPS (1024 SPF)
Compression mode            : Lossy
Stream size                 : 54.0 MiB (1%)
Language                    : Malayalam
Default                     : Yes
Alternate group             : 1



Varathan (2018) Malayalam - 1080p - WEB-HD - AVC - AAC-TMVVarathan (2018) Malayalam - 1080p - WEB-HD - AVC - AAC-TMVVarathan (2018) Malayalam - 1080p - WEB-HD - AVC - AAC-TMVVarathan (2018) Malayalam - 1080p - WEB-HD - AVC - AAC-TMVVarathan (2018) Malayalam - 1080p - WEB-HD - AVC - AAC-TMVVarathan (2018) Malayalam - 1080p - WEB-HD - AVC - AAC-TMV


SINGLE DIRECT FAST LINKS
https://www.heroupload.us/6faf62aaee974788/Varathan.2018.Malayalam.Proper.True.HQ.WEB-HD.1080p.UNTOUCHED.AVC.AAC-TMV.mp4


https://filefloater.com/Vis/Varathan.2018.Malayalam.Proper.True.HQ.WEB-HD.1080p.UNTOUCHED.AVC.AAC-TMV.mp4

1GB LINKS

https://www.heroupload.us/aa412b7a1c2d8f75/Varathan.2018.Malayalam.Proper.True.HQ.WEB-HD.1080p.UNTOUCHED.AVC.AAC-TMV.part1.rar
https://www.heroupload.us/d1dd7e0e40493df3/Varathan.2018.Malayalam.Proper.True.HQ.WEB-HD.1080p.UNTOUCHED.AVC.AAC-TMV.part2.rar
https://www.heroupload.us/2deb011d6894a20a/Varathan.2018.Malayalam.Proper.True.HQ.WEB-HD.1080p.UNTOUCHED.AVC.AAC-TMV.part3.rar
https://www.heroupload.us/a7b3eb4844451818/Varathan.2018.Malayalam.Proper.True.HQ.WEB-HD.1080p.UNTOUCHED.AVC.AAC-TMV.part4.rar



https://filefloater.com/Vit/Varathan.2018.Malayalam.Proper.True.HQ.WEB-HD.1080p.UNTOUCHED.AVC.AAC-TMV.part1.rar
https://filefloater.com/Viu/Varathan.2018.Malayalam.Proper.True.HQ.WEB-HD.1080p.UNTOUCHED.AVC.AAC-TMV.part2.rar
https://filefloater.com/Viv/Varathan.2018.Malayalam.Proper.True.HQ.WEB-HD.1080p.UNTOUCHED.AVC.AAC-TMV.part3.rar
https://filefloater.com/Viw/Varathan.2018.Malayalam.Proper.True.HQ.WEB-HD.1080p.UNTOUCHED.AVC.AAC-TMV.part4.rar



Buy Premium From My Links & Support Me

Теги: Varathan

Dear visitor, you are browsing our website as Guest.
We strongly recommend you to register and login to view hidden contents.

Comments:

Add Comments
Reply
  • Group: Guests
  • ICQ:
  • Registration: --
  • Status:
  • 0 Comment
  • 0 Article
^
I have recently started a blog, the info you provide on this site has helped me greatly. Thanks for all of your time & work. 토토
Reply
  • Group: Guests
  • ICQ:
  • Registration: --
  • Status:
  • 0 Comment
  • 0 Article
^
I think this is an informative post and it is very useful and knowledgeable. therefore, I would like to thank you for the efforts you have made in writing this article. טיסות לואו קוסט
Reply
  • Group: Guests
  • ICQ:
  • Registration: --
  • Status:
  • 0 Comment
  • 0 Article
^
I think this is a really good article. You make this information interesting and engaging. You give readers a lot to think about and I appreciate that kind of writing. http://gclub-million.com
Reply
  • fuzail

  • 4 February 2019 07:02
  • Group: Guests
  • ICQ:
  • Registration: --
  • Status:
  • 0 Comment
  • 0 Article
^
Thank you again for all the knowledge you distribute,Good post. I was very interested in the article, it's quite inspiring I should admit. I like visiting you site since I always come across interesting articles like this one.Great Job, I greatly appreciate that.Do Keep sharing! Regards, 예스카지노