Set as default Homepage|Bookmark
 
 
» » Vishwaroopam 2 (2018) Malayalam Original - 1080p - WEB-HD - AVC - AAC - ESubs-MTR
Advertise

Vishwaroopam 2 (2018) Malayalam Original - 1080p - WEB-HD - AVC - AAC - ESubs-MTR

Author: wroser on 15-11-2018, 21:03
Vishwaroopam 2 (2018) Malayalam Original - 1080p - WEB-HD - AVC - AAC - ESubs-MTR





Format                      : MPEG-4
Format profile              : Base Media
Codec ID                    : isom (isom/iso2/avc1/mp41)
File size                   : 4.30 GiB
Duration                    : 2 h 14 min
Overall bit rate mode       : Constant
Overall bit rate            : 4 567 kb/s
Writing application         : Lavf57.56.100

Video
ID                          : 1
Format                      : AVC
Format/Info                 : Advanced Video Codec
Format profile              : [email protected]
Format settings, CABAC      : Yes
Format settings, RefFrames  : 1 frame
Format settings, GOP        : M=1, N=100
Codec ID                    : avc1
Codec ID/Info               : Advanced Video Coding
Duration                    : 2 h 14 min
Bit rate mode               : Constant
Bit rate                    : 4 500 kb/s
Width                       : 1 920 pixels
Height                      : 1 080 pixels
Display aspect ratio        : 16:9
Frame rate mode             : Constant
Frame rate                  : 25.000 FPS
Color space                 : YUV
Chroma subsampling          : 4:2:0
Bit depth                   : 8 bits
Scan type                   : Progressive
Bits/(Pixel*Frame)          : 0.087
Stream size                 : 4.24 GiB (99%)

Audio
ID                          : 2
Format                      : AAC
Format/Info                 : Advanced Audio Codec
Format profile              : LC
Codec ID                    : 40
Duration                    : 2 h 14 min
Bit rate mode               : Constant
Bit rate                    : 61.4 kb/s
Channel(s)                  : 2 channels
Channel positions           : Front: L R
Sampling rate               : 48.0 kHz
Frame rate                  : 46.875 FPS (1024 SPF)
Compression mode            : Lossy
Stream size                 : 59.2 MiB (1%)
Default                     : Yes
Alternate group             : 1



SINGLE DIRECT FAST LINKS
https://www.heroupload.us/2d885eec46ccf165/Vishwaroopam.2.2018.Malayalam.1080p.HD.AVC.MP4.x264.ESubs-MTR.mp4


https://filefloater.com/1lcG/Vishwaroopam.2.2018.Malayalam.1080p.HD.AVC.MP4.x264.ESubs-MTR.mp4

1GB LINKS

https://www.heroupload.us/6507a331623e5082/Vishwaroopam.2.2018.Malayalam.1080p.HD.AVC.MP4.x264.ESubs-MTR.part1.rar
https://www.heroupload.us/31e29603d54db8f8/Vishwaroopam.2.2018.Malayalam.1080p.HD.AVC.MP4.x264.ESubs-MTR.part2.rar
https://www.heroupload.us/13ed809901f0cc3c/Vishwaroopam.2.2018.Malayalam.1080p.HD.AVC.MP4.x264.ESubs-MTR.part3.rar
https://www.heroupload.us/70e7d761d80873c0/Vishwaroopam.2.2018.Malayalam.1080p.HD.AVC.MP4.x264.ESubs-MTR.part4.rar
https://www.heroupload.us/a59d03803318b888/Vishwaroopam.2.2018.Malayalam.1080p.HD.AVC.MP4.x264.ESubs-MTR.part5.rar
https://www.heroupload.us/cdf9fd4f5d9bc827/Vishwaroopam.2.2018.Malayalam.1080p.HD.AVC.MP4.x264.ESubs-MTR.srt



https://filefloater.com/1lcH/Vishwaroopam.2.2018.Malayalam.1080p.HD.AVC.MP4.x264.ESubs-MTR.part1.rar
https://filefloater.com/1lcI/Vishwaroopam.2.2018.Malayalam.1080p.HD.AVC.MP4.x264.ESubs-MTR.part2.rar
https://filefloater.com/1lcJ/Vishwaroopam.2.2018.Malayalam.1080p.HD.AVC.MP4.x264.ESubs-MTR.part3.rar
https://filefloater.com/1LdE/Vishwaroopam.2.2018.Malayalam.1080p.HD.AVC.MP4.x264.ESubs-MTR.part4.rar
https://filefloater.com/1lcL/Vishwaroopam.2.2018.Malayalam.1080p.HD.AVC.MP4.x264.ESubs-MTR.part5.rar
https://filefloater.com/1lcM/Vishwaroopam.2.2018.Malayalam.1080p.HD.AVC.MP4.x264.ESubs-MTR.srt



Buy Premium From My Links & Support Me

Теги: Vishwaroopam

Dear visitor, you are browsing our website as Guest.
We strongly recommend you to register and login to view hidden contents.

Comments:

Add Comments