Set as default Homepage|Bookmark
 
 
» » B. Tech (2018) Malayalam - 720p - DVDRip - x264 - DD5.1 - ESubs-MTR
Advertise

B. Tech (2018) Malayalam - 720p - DVDRip - x264 - DD5.1 - ESubs-MTR

Author: wroser on 14-08-2018, 17:47
B. Tech (2018) Malayalam - 720p - DVDRip - x264 - DD5.1 - ESubs-MTR






General
Format                      : Matroska
Format version              : Version 4 / Version 2
File size                   : 1.40 GiB
Duration                    : 2 h 25 min
Overall bit rate            : 1 385 kb/s
Encoded date                : UTC 2018-08-13 10:20:44
Writing application         : mkvmerge v20.0.0 ('I Am The Sun') 32-bit
Writing library             : libebml v1.3.5 + libmatroska v1.4.8

Video
ID                          : 1
Format                      : AVC
Format/Info                 : Advanced Video Codec
Format profile              : [email protected]
Format settings, CABAC      : Yes
Format settings, RefFrames  : 4 frames
Codec ID                    : V_MPEG4/ISO/AVC
Duration                    : 2 h 25 min
Bit rate                    : 1 159 kb/s
Width                       : 720 pixels
Height                      : 308 pixels
Display aspect ratio        : 2.35:1
Frame rate mode             : Variable
Frame rate                  : 23.976 FPS
Color space                 : YUV
Chroma subsampling          : 4:2:0
Bit depth                   : 8 bits
Scan type                   : Progressive
Bits/(Pixel*Frame)          : 0.218
Stream size                 : 1.17 GiB (84%)
Writing library             : x264 core 148 r2708 86b7198
Encoding settings           : cabac=1 / ref=2 / deblock=1:0:0 / analyse=0x1:0x111 / me=hex / subme=6 / psy=1 / psy_rd=1.00:0.00 / mixed_ref=1 / me_range=16 / chroma_me=1 / trellis=1 / 8x8dct=0 / cqm=0 / deadzone=21,11 / fast_pskip=1 / chroma_qp_offset=-2 / threads=6 / lookahead_threads=1 / sliced_threads=0 / nr=0 / decimate=1 / interlaced=0 / bluray_compat=0 / constrained_intra=0 / bframes=3 / b_pyramid=2 / b_adapt=1 / b_bias=0 / direct=1 / weightb=1 / open_gop=0 / weightp=1 / keyint=300 / keyint_min=30 / scenecut=40 / intra_refresh=0 / rc_lookahead=30 / rc=2pass / mbtree=1 / bitrate=1159 / ratetol=1.0 / qcomp=0.60 / qpmin=0 / qpmax=69 / qpstep=4 / cplxblur=20.0 / qblur=0.5 / vbv_maxrate=20000 / vbv_bufsize=25000 / nal_hrd=none / filler=0 / ip_ratio=1.40 / aq=1:1.00
Language                    : English
Default                     : Yes
Forced                      : No
Color range                 : Limited
Color primaries             : BT.601 NTSC
Transfer characteristics    : BT.709
Matrix coefficients         : BT.601

Audio
ID                          : 2
Format                      : AC-3
Format/Info                 : Audio Coding 3
Format settings, Endianness : Big
Codec ID                    : A_AC3
Duration                    : 2 h 25 min
Bit rate mode               : Constant
Bit rate                    : 224 kb/s
Channel(s)                  : 6 channels
Channel positions           : Front: L C R, Side: L R, LFE
Sampling rate               : 48.0 kHz
Frame rate                  : 31.250 FPS (1536 SPF)
Bit depth                   : 16 bits
Compression mode            : Lossy
Delay relative to video     : -5 ms
Stream size                 : 232 MiB (16%)
Language                    : English
Service kind                : Complete Main
Default                     : Yes
Forced                      : No

Text
ID                          : 3
Format                      : UTF-8
Codec ID                    : S_TEXT/UTF8
Codec ID/Info               : UTF-8 Plain Text
Duration                    : 2 h 15 min
Bit rate                    : 63 b/s
Count of elements           : 2149
Stream size                 : 62.7 KiB (0%)
Language                    : English
Default                     : No
Forced                      : No


B. Tech (2018) Malayalam - 720p - DVDRip - x264 - DD5.1 - ESubs-MTRB. Tech (2018) Malayalam - 720p - DVDRip - x264 - DD5.1 - ESubs-MTRB. Tech (2018) Malayalam - 720p - DVDRip - x264 - DD5.1 - ESubs-MTRB. Tech (2018) Malayalam - 720p - DVDRip - x264 - DD5.1 - ESubs-MTRB. Tech (2018) Malayalam - 720p - DVDRip - x264 - DD5.1 - ESubs-MTR


SINGLE DIRECT FAST LINKS
http://www.heroupload.us/8f013cb6bc1beed3/B._Tech.2018.Malayalam.Original.720p.DVDRip.x264.AC3.5.1.ESubs-MTR.mkv



http://filefloater.com/Uez/B._Tech.2018.Malayalam.Original.720p.DVDRip.x264.AC3.5.1.ESubs-MTR.mkv



Buy Premium From My Links & Support Me

Теги: B

Dear visitor, you are browsing our website as Guest.
We strongly recommend you to register and login to view hidden contents.

Comments:

Add Comments
Reply
  • rajan

  • 21 August 2018 08:10
  • Group: Guests
  • ICQ:
  • Registration: --
  • Status:
  • 0 Comment
  • 0 Article
^
If you faced the problem of Bluetooth connection in window 10 and you want to fix wireless displays connections in windows 10 then follow instruction careful.

If you faced the problem of Bluetooth connection in window 10 and you want to fix wireless displays connections in windows 10 then follow instruction careful.