Set as default Homepage|Bookmark
 
 
» » Do Ladke Dono Kadke (1979) 720p - HD-DVDRip - AVC - AAC-Bollywooda2z
Advertise

Do Ladke Dono Kadke (1979) 720p - HD-DVDRip - AVC - AAC-Bollywooda2z

Author: wroser on 31-07-2018, 22:44
Do Ladke Dono Kadke (1979) 720p - HD-DVDRip - AVC - AAC-Bollywooda2z



General
Complete name               : E:\Download C 2\2\Do.Ladke.Dono.Kadke.720p.HD-DVD.AVC.AAC-BollywoodA2Z.mp4
Format                      : MPEG-4
Format profile              : Base Media
Codec ID                    : isom (isom/avc1/mp42)
File size                   : 1.07 GiB
Duration                    : 1 h 58 min
Overall bit rate mode       : Variable
Overall bit rate            : 1 294 kb/s
Encoded date                : UTC 2017-10-17 19:54:45
Tagged date                 : UTC 2017-10-17 19:54:45

Video
ID                          : 1
Format                      : AVC
Format/Info                 : Advanced Video Codec
Format profile              : [email protected]
Format settings, CABAC      : Yes
Format settings, RefFrames  : 4 frames
Format settings, GOP        : M=3, N=25
Codec ID                    : avc1
Codec ID/Info               : Advanced Video Coding
Duration                    : 1 h 58 min
Bit rate                    : 1 194 kb/s
Maximum bit rate            : 2 729 kb/s
Width                       : 1 280 pixels
Height                      : 720 pixels
Display aspect ratio        : 16:9
Frame rate mode             : Constant
Frame rate                  : 25.000 FPS
Color space                 : YUV
Chroma subsampling          : 4:2:0
Bit depth                   : 8 bits
Scan type                   : Progressive
Bits/(Pixel*Frame)          : 0.052
Stream size                 : 1 012 MiB (92%)
Writing library             : Zencoder Video Encoding System
Encoded date                : UTC 2017-10-17 19:34:25
Tagged date                 : UTC 2017-10-17 19:54:47
Color range                 : Limited
Color primaries             : BT.709
Transfer characteristics    : BT.709
Matrix coefficients         : BT.709

Audio
ID                          : 2
Format                      : AAC
Format/Info                 : Advanced Audio Codec
Format profile              : LC
Codec ID                    : 40
Duration                    : 1 h 58 min
Bit rate mode               : Variable
Bit rate                    : 96.0 kb/s
Maximum bit rate            : 115 kb/s
Channel(s)                  : 2 channels
Channel positions           : Front: L R
Sampling rate               : 48.0 kHz
Frame rate                  : 46.875 FPS (1024 SPF)
Compression mode            : Lossy
Stream size                 : 81.2 MiB (7%)
Encoded date                : UTC 2017-10-17 19:14:56
Tagged date                 : UTC 2017-10-17 19:54:47



Do Ladke Dono Kadke (1979) 720p - HD-DVDRip - AVC - AAC-Bollywooda2z
SINGLE DIRECT FAST LINKS

http://www.heroupload.us/b1c3d1792d50171b/Do.Ladke.Dono.Kadke.720p.HD-DVD.AVC.AAC-BollywoodA2Z.mp4



http://filefloater.com/29Wh/Do.Ladke.Dono.Kadke.720p.HD-DVD.AVC.AAC-BollywoodA2Z.mp4



Buy Premium From My Links & Support Me

Теги: Do

Dear visitor, you are browsing our website as Guest.
We strongly recommend you to register and login to view hidden contents.

Comments:

Add Comments