Set as default Homepage|Bookmark
 
 
» » Diljalaa (1987) 480p - HD-DVDRip - AVC - AAC-Bollywooda2z
Advertise

Diljalaa (1987) 480p - HD-DVDRip - AVC - AAC-Bollywooda2z

Author: wroser on 31-07-2018, 22:33
Diljalaa (1987) 480p - HD-DVDRip - AVC - AAC-Bollywooda2z



General
Complete name               : E:\Download C 2\2\Diljalaa.480p.HD-DVD.AVC.AAC-BollywoodA2Z.mp4
Format                      : MPEG-4
Format profile              : Base Media
Codec ID                    : isom (isom/iso2/avc1/mp41)
File size                   : 904 MiB
Duration                    : 2 h 20 min
Overall bit rate            : 902 kb/s
Writing application         : Lavf58.9.100

Video
ID                          : 1
Format                      : AVC
Format/Info                 : Advanced Video Codec
Format profile              : [email protected]
Format settings, CABAC      : Yes
Format settings, RefFrames  : 4 frames
Format settings, GOP        : M=1, N=25
Codec ID                    : avc1
Codec ID/Info               : Advanced Video Coding
Duration                    : 2 h 20 min
Bit rate                    : 800 kb/s
Width                       : 720 pixels
Height                      : 404 pixels
Display aspect ratio        : 16:9
Frame rate mode             : Constant
Frame rate                  : 25.000 FPS
Color space                 : YUV
Chroma subsampling          : 4:2:0
Bit depth                   : 8 bits
Scan type                   : Progressive
Bits/(Pixel*Frame)          : 0.110
Stream size                 : 802 MiB (89%)
Writing library             : Zencoder Video Encoding System
Color range                 : Limited
Color primaries             : BT.601 NTSC
Transfer characteristics    : BT.709
Matrix coefficients         : BT.601

Audio
ID                          : 2
Format                      : AAC
Format/Info                 : Advanced Audio Codec
Format profile              : LC
Codec ID                    : 40
Duration                    : 2 h 20 min
Bit rate mode               : Constant
Bit rate                    : 96.0 kb/s
Channel(s)                  : 2 channels
Channel positions           : Front: L R
Sampling rate               : 48.0 kHz
Frame rate                  : 46.875 FPS (1024 SPF)
Compression mode            : Lossy
Stream size                 : 96.2 MiB (11%)
Default                     : Yes
Alternate group             : 1





Diljalaa (1987) 480p - HD-DVDRip - AVC - AAC-Bollywooda2z


SINGLE DIRECT FAST LINKS

http://www.heroupload.us/b997ab59350537d3/Diljalaa.480p.HD-DVD.AVC.AAC-BollywoodA2Z.mp4



http://filefloater.com/1JV4/Diljalaa.480p.HD-DVD.AVC.AAC-BollywoodA2Z.mp4


Buy Premium From My Links & Support Me

Теги: Diljalaa

Dear visitor, you are browsing our website as Guest.
We strongly recommend you to register and login to view hidden contents.

Comments:

Add Comments