Set as default Homepage|Bookmark
 
 
» » Diary of a Butterfly (2012) 720p - HD-DVDRip - AVC - AAC-Bollywooda2z
Advertise

Diary of a Butterfly (2012) 720p - HD-DVDRip - AVC - AAC-Bollywooda2z

Author: wroser on 31-07-2018, 22:22
Diary of a Butterfly (2012) 720p - HD-DVDRip - AVC - AAC-Bollywooda2z



General
Complete name               : E:\Download C 2\1\Diary.Of.A.Butterfly.720p.HD-DVD.AVC.AAC-BollywoodA2Z.mp4
Format                      : MPEG-4
Format profile              : Base Media
Codec ID                    : isom (isom/avc1/mp42)
File size                   : 870 MiB
Duration                    : 1 h 33 min
Overall bit rate mode       : Variable
Overall bit rate            : 1 297 kb/s
Encoded date                : UTC 2017-10-17 14:08:38
Tagged date                 : UTC 2017-10-17 14:08:38

Video
ID                          : 1
Format                      : AVC
Format/Info                 : Advanced Video Codec
Format profile              : [email protected]
Format settings, CABAC      : Yes
Format settings, RefFrames  : 4 frames
Codec ID                    : avc1
Codec ID/Info               : Advanced Video Coding
Duration                    : 1 h 33 min
Bit rate                    : 1 197 kb/s
Maximum bit rate            : 3 267 kb/s
Width                       : 1 280 pixels
Height                      : 720 pixels
Display aspect ratio        : 16:9
Frame rate mode             : Constant
Frame rate                  : 25.000 FPS
Color space                 : YUV
Chroma subsampling          : 4:2:0
Bit depth                   : 8 bits
Scan type                   : Progressive
Bits/(Pixel*Frame)          : 0.052
Stream size                 : 803 MiB (92%)
Writing library             : Zencoder Video Encoding System
Encoded date                : UTC 2017-10-17 13:52:41
Tagged date                 : UTC 2017-10-17 14:08:40
Color range                 : Limited
Color primaries             : BT.709
Transfer characteristics    : BT.709
Matrix coefficients         : BT.709

Audio
ID                          : 2
Format                      : AAC
Format/Info                 : Advanced Audio Codec
Format profile              : LC
Codec ID                    : 40
Duration                    : 1 h 33 min
Bit rate mode               : Variable
Bit rate                    : 96.0 kb/s
Maximum bit rate            : 103 kb/s
Channel(s)                  : 2 channels
Channel positions           : Front: L R
Sampling rate               : 48.0 kHz
Frame rate                  : 46.875 FPS (1024 SPF)
Compression mode            : Lossy
Stream size                 : 64.4 MiB (7%)
Encoded date                : UTC 2017-10-17 13:37:58
Tagged date                 : UTC 2017-10-17 14:08:40



Diary of a Butterfly (2012) 720p - HD-DVDRip - AVC - AAC-Bollywooda2z

SINGLE DIRECT FAST LINKS

http://www.heroupload.us/a28ac82439f90593/Diary.Of.A.Butterfly.720p.HD-DVD.AVC.AAC-BollywoodA2Z.mp4



http://filefloater.com/29Sa/Diary.Of.A.Butterfly.720p.HD-DVD.AVC.AAC-BollywoodA2Z.mp4



Buy Premium From My Links & Support Me

Теги: Diary

Dear visitor, you are browsing our website as Guest.
We strongly recommend you to register and login to view hidden contents.

Comments:

Add Comments