Set as default Homepage|Bookmark
 
 
» » Kambakkht Ishq (2009) 720p - BluRay - x264 - DD5.1-NhaNc3
Advertise

Kambakkht Ishq (2009) 720p - BluRay - x264 - DD5.1-NhaNc3

Author: wroser on 20-07-2018, 09:30
Kambakkht Ishq (2009) 720p - BluRay - x264 - DD5.1-NhaNc3




Format                      : Matroska
Format version              : Version 2
File size                   : 2.19 GiB
Duration                    : 2 h 14 min
Overall bit rate            : 2 333 kb/s
Encoded date                : UTC 2009-12-23 09:15:07
Writing application         : mkvmerge v2.9.7 ('Tenderness') built on Jul  1 2009 18:43:35
Writing library             : libebml v0.7.7 + libmatroska v0.8.1

Video
ID                          : 1
Format                      : AVC
Format/Info                 : Advanced Video Codec
Format profile              : [email protected]
Format settings, CABAC      : Yes
Format settings, RefFrames  : 8 frames
Codec ID                    : V_MPEG4/ISO/AVC
Duration                    : 2 h 14 min
Bit rate                    : 2 107 kb/s
Width                       : 1 280 pixels
Height                      : 544 pixels
Display aspect ratio        : 2.35:1
Frame rate mode             : Constant
Frame rate                  : 23.976 FPS
Color space                 : YUV
Chroma subsampling          : 4:2:0
Bit depth                   : 8 bits
Scan type                   : Progressive
Bits/(Pixel*Frame)          : 0.126
Stream size                 : 1.93 GiB (88%)
Writing library             : x264 core 75 r1247 b3efbe5
Encoding settings           : cabac=1 / ref=8 / deblock=1:-1:-3 / analyse=0x3:0x113 / me=umh / subme=9 / psy=1 / psy_rd=1.0:0.0 / mixed_ref=1 / me_range=16 / chroma_me=1 / trellis=2 / 8x8dct=1 / cqm=2 / deadzone=21,11 / chroma_qp_offset=-2 / threads=12 / nr=0 / decimate=1 / mbaff=0 / bframes=3 / b_pyramid=0 / b_adapt=2 / b_bias=0 / direct=3 / wpredb=1 / keyint=250 / keyint_min=25 / scenecut=40 / rc_lookahead=0 / rc=2pass / mbtree=0 / bitrate=2107 / ratetol=1.0 / qcomp=0.60 / qpmin=10 / qpmax=51 / qpstep=4 / cplxblur=20.0 / qblur=0.5 / vbv_maxrate=50000 / vbv_bufsize=50000 / ip_ratio=1.40 / pb_ratio=1.30 / aq=1:1.00
Language                    : English
Default                     : Yes
Forced                      : No

Audio
ID                          : 2
Format                      : AC-3
Format/Info                 : Audio Coding 3
Format settings, Endianness : Big
Codec ID                    : A_AC3
Duration                    : 2 h 14 min
Bit rate mode               : Constant
Bit rate                    : 224 kb/s
Channel(s)                  : 6 channels
Channel positions           : Front: L C R, Side: L R, LFE
Sampling rate               : 48.0 kHz
Frame rate                  : 31.250 FPS (1536 SPF)
Bit depth                   : 16 bits
Compression mode            : Lossy
Stream size                 : 215 MiB (10%)
Language                    : Hindi
Service kind                : Complete Main
Default                     : Yes
Forced                      : No



Kambakkht Ishq (2009) 720p - BluRay - x264 - DD5.1-NhaNc3

SINGLE DIRECT FAST LINKS

http://www.heroupload.us/d2b51d4cbad8701a/Kambakkht.Ishq.2009.720p.BluRay.nHD.x264-NhaNc3.mkv



http://filefloater.com/1JL7/Kambakkht.Ishq.2009.720p.BluRay.nHD.x264-NhaNc3.mkv




Buy Premium From My Links & Support Me

Теги: Kambakkht

Dear visitor, you are browsing our website as Guest.
We strongly recommend you to register and login to view hidden contents.

Comments:

Add Comments