Set as default Homepage|Bookmark
 
 
» » Dangal (2016) 1GB - NS-DVDscr - x264 - AAC 2.0 - [DDR-Exclusive]
Advertise

Dangal (2016) 1GB - NS-DVDscr - x264 - AAC 2.0 - [DDR-Exclusive]

Author: wroser on 29-01-2017, 16:47

Dangal (2016) 1GB - NS-DVDscr - x264 - AAC 2.0 - [DDR-Exclusive]







Format : Matroska
File size : 1 022 MiB
Duration : 2 h 38 min
Overall bit rate : 902 kb/s

Video
Format : AVC
Format profile : [email protected]
Duration : 2 h 38 min
Bit rate : 772 kb/s
Width : 720 pixels
Height : 304 pixels
Display aspect ratio : 2.35:1
Frame rate : 23.976 (24000/1001) FPS
Bit depth : 8 bits
Stream size : 874 MiB (86%)
Color primaries : BT.601

Audio #1
Format : AAC
Format profile : LC
Bit rate : 128 kb/s
Channel(s) : 2 channels
Channel positions : Front: L R
Stream size : 145 MiB (14%)
Language : Hindi

Chapters : YES

Dangal (2016) 1GB - NS-DVDscr - x264 - AAC 2.0 - [DDR-Exclusive]
Dangal (2016) 1GB - NS-DVDscr - x264 - AAC 2.0 - [DDR-Exclusive]
Dangal (2016) 1GB - NS-DVDscr - x264 - AAC 2.0 - [DDR-Exclusive]
Dangal (2016) 1GB - NS-DVDscr - x264 - AAC 2.0 - [DDR-Exclusive]
Dangal (2016) 1GB - NS-DVDscr - x264 - AAC 2.0 - [DDR-Exclusive]
Dangal (2016) 1GB - NS-DVDscr - x264 - AAC 2.0 - [DDR-Exclusive]
Dangal (2016) 1GB - NS-DVDscr - x264 - AAC 2.0 - [DDR-Exclusive]

[B]SINGLE DIRECT FAST LINKS[/B]

http://www.heroupload.com/de616625012ae29c/Dangal.2017.1GB.x264.DVDSCR.AAC.2.0-DDR.mkv




Dear visitor, you are browsing our website as Guest.
We strongly recommend you to register and login to view hidden contents.

Comments:

Add Comments
Reply
  • Group: Members
  • ICQ: 355135313
  • Registration: 7.02.2017
  • Status: Currently Offline
  • 2 Comments
  • 0 Article
^
Как оказалось здесь об этом все написано
-----

работа вахта

Ты про этот сайтов говорил?
-----

Как поменять вздувшийся конденсатор
Reply
  • Group: Members
  • ICQ: 368548325
  • Registration: 8.02.2017
  • Status: Currently Offline
  • 2 Comments
  • 0 Article
^
Го го пацы я создал
----

Русский парень выебал свою мать

А вы говорите я не найду такое
-----

отличная поза
Reply
  • Group: Members
  • ICQ: 247843666
  • Registration: 9.02.2017
  • Status: Currently Offline
  • 2 Comments
  • 0 Article
^
Любители автомобилией - вам сюда, ссылка внизу
-----

оклейка кузова автомобиля