Set as default Homepage|Bookmark
 
 
» » A Gentleman (2017) 720p - BluRay - x264 - DD5.1-NhaNc3
Advertise

A Gentleman (2017) 720p - BluRay - x264 - DD5.1-NhaNc3

Author: wroser on 27-10-2020, 15:00

A Gentleman (2017) 720p - BluRay - x264 - DD5.1-NhaNc3





Format                      : Matroska
Format version              : Version 2
File size                   : 2.64 GiB
Duration                    : 2 h 12 min
Overall bit rate            : 2 851 kb/s
Encoded date                : UTC 2018-03-07 09:09:25
Writing application         : mkvmerge v4.9.1 ('Ich will') built on Jul 11 2011 23:53:15
Writing library             : libebml v1.2.1 + libmatroska v1.1.1

Video
ID                          : 1
Format                      : AVC
Format/Info                 : Advanced Video Codec
Format profile              : 
Format settings, CABAC      : Yes
Format settings, RefFrames  : 8 frames
Codec ID                    : V_MPEG4/ISO/AVC
Duration                    : 2 h 12 min
Bit rate                    : 2 465 kb/s
Width                       : 1 280 pixels
Height                      : 544 pixels
Display aspect ratio        : 2.35:1
Frame rate mode             : Constant
Frame rate                  : 24.000 FPS
Color space                 : YUV
Chroma subsampling          : 4:2:0
Bit depth                   : 8 bits
Scan type                   : Progressive
Bits/(Pixel*Frame)          : 0.148
Stream size                 : 2.23 GiB (85%)
Writing library             : x264 core 148 r2638 7599210
Encoding settings           : cabac=1 / ref=8 / deblock=1:0:0 / analyse=0x3:0x113 / me=umh / subme=9 / psy=1 / psy_rd=1.00:0.00 / mixed_ref=1 / me_range=16 / chroma_me=1 / trellis=1 / 8x8dct=1 / cqm=0 / deadzone=21,11 / fast_pskip=1 / chroma_qp_offset=-2 / threads=8 / lookahead_threads=1 / sliced_threads=0 / nr=0 / decimate=1 / interlaced=0 / bluray_compat=0 / constrained_intra=0 / bframes=5 / b_pyramid=2 / b_adapt=1 / b_bias=0 / direct=1 / weightb=1 / open_gop=0 / weightp=2 / keyint=250 / keyint_min=24 / scenecut=40 / intra_refresh=0 / rc_lookahead=40 / rc=2pass / mbtree=1 / bitrate=2465 / ratetol=1.0 / qcomp=0.60 / qpmin=0 / qpmax=69 / qpstep=4 / cplxblur=20.0 / qblur=0.5 / vbv_maxrate=20000 / vbv_bufsize=15000 / nal_hrd=none / filler=0 / ip_ratio=1.40 / aq=1:1.00
Language                    : English
Default                     : Yes
Forced                      : No
Color range                 : Limited
Color primaries             : BT.709
Transfer characteristics    : BT.709
Matrix coefficients         : BT.709

Audio
ID                          : 2
Format                      : AC-3
Format/Info                 : Audio Coding 3
Format settings, Endianness : Big
Codec ID                    : A_AC3
Duration                    : 2 h 12 min
Bit rate mode               : Constant
Bit rate                    : 384 kb/s
Channel(s)                  : 6 channels
Channel positions           : Front: L C R, Side: L R, LFE
Sampling rate               : 48.0 kHz
Frame rate                  : 31.250 FPS (1536 SPF)
Bit depth                   : 16 bits
Compression mode            : Lossy
Stream size                 : 364 MiB (13%)
Language                    : English
Service kind                : Complete Main
Default                     : Yes
Forced                      : Yes

Text
ID                          : 3
Format                      : UTF-8
Codec ID                    : S_TEXT/UTF8
Codec ID/Info               : UTF-8 Plain Text
Title                       : Eng Subs @ TmG
Language                    : English
Default                     : Yes
Forced                      : No

Menu
00:00:00.000                : en:00:00:00.000
00:02:02.333                : en:00:02:02.333
00:08:00.500                : en:00:08:00.500
00:16:49.167                : en:00:16:49.167
00:26:35.542                : en:00:26:35.542
00:29:46.208                : en:00:29:46.208
00:37:02.542                : en:00:37:02.542
00:47:13.375                : en:00:47:13.375
01:04:31.542                : en:01:04:31.542
01:09:20.250                : en:01:09:20.250
01:16:45.042                : en:01:16:45.042
01:29:27.750                : en:01:29:27.750
01:36:45.417                : en:01:36:45.417
01:40:01.875                : en:01:40:01.875
01:47:35.667                : en:01:47:35.667
01:55:40.125                : en:01:55:40.125
02:06:13.667                : en:02:06:13.667
02:08:57.292                : en:02:08:57.292


A Gentleman (2017) 720p - BluRay - x264 - DD5.1-NhaNc3
SINGLE DIRECT FAST LINKS


https://www.heroupload.com/4a47e46813d84a1e/A.Gentleman.2017.720p.BluRay.nHD.x264-NhaNc3.mkv



Теги: A

Dear visitor, you are browsing our website as Guest.
We strongly recommend you to register and login to view hidden contents.

Comments:

Add Comments