Set as default Homepage|Bookmark
 
 
» » Raees (2017) 720p - BluRay - x264 - DD5.1-NhaNc3
Advertise

Raees (2017) 720p - BluRay - x264 - DD5.1-NhaNc3

Author: wroser on 21-10-2020, 17:38

Raees (2017) 720p - BluRay - x264 - DD5.1-NhaNc3





Format                      : Matroska
Format version              : Version 2
File size                   : 2.86 GiB
Duration                    : 2 h 23 min
Overall bit rate            : 2 849 kb/s
Encoded date                : UTC 2017-11-08 17:18:43
Writing application         : mkvmerge v4.9.1 ('Ich will') built on Jul 11 2011 23:53:15
Writing library             : libebml v1.2.1 + libmatroska v1.1.1

Video
ID                          : 1
Format                      : AVC
Format/Info                 : Advanced Video Codec
Format profile              : 
Format settings, CABAC      : Yes
Format settings, RefFrames  : 8 frames
Codec ID                    : V_MPEG4/ISO/AVC
Duration                    : 2 h 23 min
Bit rate                    : 2 436 kb/s
Width                       : 1 280 pixels
Height                      : 544 pixels
Display aspect ratio        : 2.35:1
Frame rate mode             : Constant
Frame rate                  : 24.000 FPS
Color space                 : YUV
Chroma subsampling          : 4:2:0
Bit depth                   : 8 bits
Scan type                   : Progressive
Bits/(Pixel*Frame)          : 0.146
Stream size                 : 2.42 GiB (85%)
Writing library             : x264 core 148 r2638 7599210
Encoding settings           : cabac=1 / ref=8 / deblock=1:0:0 / analyse=0x3:0x113 / me=umh / subme=9 / psy=1 / psy_rd=1.00:0.00 / mixed_ref=1 / me_range=16 / chroma_me=1 / trellis=1 / 8x8dct=1 / cqm=0 / deadzone=21,11 / fast_pskip=1 / chroma_qp_offset=-2 / threads=8 / lookahead_threads=1 / sliced_threads=0 / nr=0 / decimate=1 / interlaced=0 / bluray_compat=0 / constrained_intra=0 / bframes=5 / b_pyramid=2 / b_adapt=1 / b_bias=0 / direct=1 / weightb=1 / open_gop=0 / weightp=2 / keyint=250 / keyint_min=24 / scenecut=40 / intra_refresh=0 / rc_lookahead=40 / rc=2pass / mbtree=1 / bitrate=2436 / ratetol=1.0 / qcomp=0.60 / qpmin=0 / qpmax=69 / qpstep=4 / cplxblur=20.0 / qblur=0.5 / vbv_maxrate=20000 / vbv_bufsize=15000 / nal_hrd=none / filler=0 / ip_ratio=1.40 / aq=1:1.00
Language                    : English
Default                     : Yes
Forced                      : No
Color range                 : Limited
Color primaries             : BT.709
Transfer characteristics    : BT.709
Matrix coefficients         : BT.709

Audio
ID                          : 2
Format                      : AC-3
Format/Info                 : Audio Coding 3
Format settings, Endianness : Big
Codec ID                    : A_AC3
Duration                    : 2 h 23 min
Bit rate mode               : Constant
Bit rate                    : 384 kb/s
Channel(s)                  : 6 channels
Channel positions           : Front: L C R, Side: L R, LFE
Sampling rate               : 48.0 kHz
Frame rate                  : 31.250 FPS (1536 SPF)
Bit depth                   : 16 bits
Compression mode            : Lossy
Stream size                 : 395 MiB (13%)
Language                    : English
Service kind                : Complete Main
Default                     : Yes
Forced                      : Yes

Text #1
ID                          : 3
Format                      : PGS
Codec ID                    : S_HDMV/PGS
Codec ID/Info               : Picture based subtitle format used on BDs/HD-DVDs
Language                    : English
Default                     : Yes
Forced                      : No
Statistics Tags Issue       : mkvmerge v12.0.0 ('Trust / Lust') 64bit 2017-05-28 21:33:30 / mkvmerge v4.9.1 ('Ich will') built on Jul 11 2011 23:53:15 2017-11-08 17:18:43
FromStats_BitRate           : 13116
FromStats_Duration          : 02:15:30.417000000
FromStats_FrameCount        : 3298
FromStats_StreamSize        : 13330086

Text #2
ID                          : 4
Format                      : UTF-8
Codec ID                    : S_TEXT/UTF8
Codec ID/Info               : UTF-8 Plain Text
Title                       : Turkish
Language                    : Turkish
Default                     : No
Forced                      : No
Statistics Tags Issue       : mkvmerge v12.0.0 ('Trust / Lust') 64bit 2017-05-28 21:33:30 / mkvmerge v4.9.1 ('Ich will') built on Jul 11 2011 23:53:15 2017-11-08 17:18:43
FromStats_BitRate           : 55
FromStats_Duration          : 02:15:44.500000000
FromStats_FrameCount        : 1315
FromStats_StreamSize        : 56560

Menu
00:00:00.000                : en:00:00:00.000
00:03:55.208                : en:00:03:55.208
00:10:33.000                : en:00:10:33.000
00:14:16.833                : en:00:14:16.833
00:26:25.458                : en:00:26:25.458
00:31:48.833                : en:00:31:48.833
00:34:33.833                : en:00:34:33.833
00:38:06.208                : en:00:38:06.208
00:40:57.833                : en:00:40:57.833
00:43:25.833                : en:00:43:25.833
00:47:02.000                : en:00:47:02.000
00:50:00.625                : en:00:50:00.625
00:51:13.625                : en:00:51:13.625
00:53:47.625                : en:00:53:47.625
00:56:33.625                : en:00:56:33.625
00:59:31.625                : en:00:59:31.625
01:04:21.000                : en:01:04:21.000
01:11:11.625                : en:01:11:11.625
01:14:36.417                : en:01:14:36.417
01:18:07.625                : en:01:18:07.625
01:21:06.625                : en:01:21:06.625
01:24:36.417                : en:01:24:36.417
01:26:09.000                : en:01:26:09.000
01:30:53.000                : en:01:30:53.000
01:35:38.833                : en:01:35:38.833
01:39:17.417                : en:01:39:17.417
01:41:39.833                : en:01:41:39.833
01:46:46.000                : en:01:46:46.000
01:49:06.833                : en:01:49:06.833
01:52:35.000                : en:01:52:35.000
01:54:30.833                : en:01:54:30.833
01:58:27.000                : en:01:58:27.000
02:01:34.417                : en:02:01:34.417
02:07:31.000                : en:02:07:31.000
02:12:30.417                : en:02:12:30.417
02:18:08.000                : en:02:18:08.000


Raees (2017) 720p - BluRay - x264 - DD5.1-NhaNc3

SINGLE DIRECT FAST LINKS


https://www.heroupload.com/0d85993fa652d628/Raees.2017.720p.BluRay.nHD.x264-NhaNc3.mkv



Теги: Raees

Dear visitor, you are browsing our website as Guest.
We strongly recommend you to register and login to view hidden contents.

Comments:

Add Comments